百度云资源论坛

 找回密码
 立即注册
搜索

[剧情片] 迷失城市/失落的城市/遗忘故都 The.Lost.City.2005.LiMiTED.1080p.BluRay.x264-HD4U 8 ...

[复制链接]
电影首发 发表于 2015-11-15 11:22:00 | 显示全部楼层 |阅读模式

译  名 迷失城市/失落的城市/遗忘故都
片  名 The Lost City
年  代 2005
国  家 美国
类  别 剧情
语  言 英语/西班牙语
上映日期 2005-09-03
片  长 144 分钟
导  演 安迪·加西亚 Andy Garcia
主  演 安迪·加西亚 Andy Garcia
      Victor Rivers
      丹尼·皮诺 Danny Pino
      内斯特·卡博内尔 Nestor Carbonell
      Alfredo Armenteros


简  介


  1958年的哈瓦纳对许多人来说是个天堂,然而当地居民却对极权统治者感到不满,当"切格瓦拉"等人所率领的革命声浪延烧到了这里,一间当地夜总会的老板菲哥即将面临家破人亡妻离子散的危机,这场革命改变了一切,传统典雅文化也付之ㄧ炬,人群潮来潮往,只剩下他最爱的古巴音乐活在他的心底。




Video
ID                                       : 1
Format                                   : AVC
Format/Info                              : Advanced Video Codec
Format profile                           : [email protected]
Format settings, CABAC                   : Yes
Format settings, ReFrames                : 4 frames
Codec ID                                 : V_MPEG4/ISO/AVC
Duration                                 : 2h 24mn
Bit rate                                 : 8 040 Kbps
Width                                    : 1 920 pixels
Height                                   : 1 080 pixels
Display aspect ratio                     : 16:9
Frame rate mode                          : Constant
Frame rate                               : 23.976 fps
Color space                              : YUV
Chroma subsampling                       : 4:2:0
Bit depth                                : 8 bits
Scan type                                : Progressive
Bits/(Pixel*Frame)                       : 0.162
Stream size                              : 7.93 GiB (91%)
Writing library                          : x264 core 104 r1713 c276662
Encoding settings                        : cabac=1 / ref=4 / deblock=1:0:0 / analyse=0x3:0x133 / me=umh / subme=7 / psy=1 / psy_rd=1.00:0.00 / mixed_ref=1 / me_range=16 / chroma_me=1 / trellis=1 / 8x8dct=1 / cqm=0 / deadzone=21,11 / fast_pskip=0 / chroma_qp_offset=-2 / threads=6 / sliced_threads=0 / nr=0 / decimate=1 / interlaced=0 / constrained_intra=0 / bframes=3 / b_pyramid=2 / b_adapt=1 / b_bias=0 / direct=1 / weightb=1 / open_gop=0 / weightp=2 / keyint=250 / keyint_min=23 / scenecut=40 / intra_refresh=0 / rc_lookahead=40 / rc=2pass / mbtree=1 / bitrate=8040 / ratetol=1.0 / qcomp=0.60 / qpmin=10 / qpmax=51 / qpstep=4 / cplxblur=20.0 / qblur=0.5 / ip_ratio=1.40 / aq=1:1.00
Language                                 : English
Default                                  : No
Forced                                   : No

Audio
ID                                       : 2
Format                                   : AC-3
Format/Info                              : Audio Coding 3
Mode extension                           : CM (complete main)
Format settings, Endianness              : Big
Codec ID                                 : A_AC3
Duration                                 : 2h 24mn
Bit rate mode                            : Constant
Bit rate                                 : 640 Kbps
Channel(s)                               : 6 channels
Channel positions                        : Front: L C R, Side: L R, LFE
Sampling rate                            : 48.0 KHz
Compression mode                         : Lossy
Stream size                              : 661 MiB (7%)
Language                                 : English
Default                                  : Yes
Forced                                   : No






                                                                                                                                                                                                       

                                                                                                                       
                                                                                                                                                                                                                                                        The.Lost.City.2005.LiMiTED.1080p.BluRay.x264-HD4U.torrent (88.08 KB, 下载次数: 0)

回复

使用道具 举报

小黑屋|百度云资源论坛 |网站地图

本网站所有资源来自网络,如无意中侵犯了您的权益,请发邮件至 [email protected],立即清除相关链接

GMT+8, 2020-4-4 20:19 , Processed in 0.117700 second(s), 23 queries .

Powered by Discuz! X3.2

© 2001-2013 Comsenz Inc.

快速回复 返回顶部 返回列表