百度云资源论坛

 找回密码
 立即注册
搜索

[犯罪片] 坏中尉/爆烈警官/腐败刑警/坏警官 2009.LiMiTED.1080p.BluRay.x264-MELiTE 7.93GB ... ...

[复制链接]
电影首发 发表于 2015-11-15 11:17:00 | 显示全部楼层 |阅读模式

译  名 坏中尉/爆烈警官(台)/腐败刑警(港)/坏警官/坏中尉:新奥尔良港
片  名 The Bad Lieutenant: Port of Call - New Orleans
年  代 2009
国  家 美国
类  别 犯罪/惊悚
语  言 英语/西班牙语
上映日期 2009-11-20
片  长 122 分钟
导  演 沃纳·赫尔佐格 Werner Herzog
主  演 尼古拉斯·凯奇 Nicolas Cage
      伊娃·门德斯 Eva Mendes
      方·基默 Val Kilmer
      詹妮佛·库里奇 Jennifer Coolidge
      费尔鲁扎·鲍克 Fairuza Balk
      布拉德·道里夫 Brad Dourif
      迈克尔·珊农 Michael Shannon


简  介


  飓风后的奥尔良,全城陷入瘫痪。当地的监狱中,所有狱警和囚犯已全部撤离,却有一个囚徒被遗忘在这里。警官特伦斯•麦克多纳(尼古拉斯•凯奇 Nicolas Cage 饰)和同事巡查牢房时发现了他,特伦斯出手相助。这个英勇举动使他晋升为中尉,但他的脊柱也受到严重损伤,从此只能靠药物缓解疼痛。不断加剧的疼痛令各种药物失去效力,特伦斯在这一过程中饱受折磨,他不得以求助毒品,身体和经济状况都接近崩溃边缘,脾气也越来越糟。一个英雄警察逐渐堕落。不久,城内发生一起灭门惨案,大毒枭达费特具有重大嫌疑。特伦斯受命调查此案,在这一过程中,他泯灭已久的良知逐渐复苏……
  本片荣获2009年威尼斯电影节Christopher D. Smithers Foundation特别奖。


获奖情况


  第66届威尼斯电影节 (2009)
  金狮奖(提名) 沃纳·赫尔佐格
  克里斯托弗·D·史密瑟斯基金特别奖 沃纳·赫尔佐格




Video
ID                                       : 2
Format                                   : AVC
Format/Info                              : Advanced Video Codec
Format profile                           : [email protected]
Format settings, CABAC                   : Yes
Format settings, ReFrames                : 4 frames
Codec ID                                 : V_MPEG4/ISO/AVC
Duration                                 : 2h 1mn
Bit rate                                 : 8 683 Kbps
Width                                    : 1 920 pixels
Height                                   : 1 080 pixels
Display aspect ratio                     : 16:9
Frame rate mode                          : Constant
Frame rate                               : 23.976 fps
Color space                              : YUV
Chroma subsampling                       : 4:2:0
Bit depth                                : 8 bits
Scan type                                : Progressive
Bits/(Pixel*Frame)                       : 0.175
Stream size                              : 7.22 GiB (91%)
Writing library                          : x264 core 88 r1471 1144615
Encoding settings                        : cabac=1 / ref=4 / deblock=1:0:0 / analyse=0x3:0x133 / me=umh / subme=7 / psy=1 / psy_rd=1.00:0.00 / mixed_ref=1 / me_range=16 / chroma_me=1 / trellis=1 / 8x8dct=1 / cqm=0 / deadzone=21,11 / fast_pskip=1 / chroma_qp_offset=-2 / threads=6 / sliced_threads=0 / nr=0 / decimate=1 / mbaff=0 / constrained_intra=0 / bframes=3 / b_pyramid=2 / b_adapt=2 / b_bias=0 / direct=3 / wpredb=1 / wpredp=2 / keyint=250 / keyint_min=25 / scenecut=40 / intra_refresh=0 / rc=2pass / mbtree=0 / bitrate=8683 / ratetol=1.0 / qcomp=0.60 / qpmin=10 / qpmax=51 / qpstep=4 / cplxblur=20.0 / qblur=0.5 / ip_ratio=1.40 / pb_ratio=1.30 / aq=1:1.00
Language                                 : English
Default                                  : No
Forced                                   : No

Audio
ID                                       : 1
Format                                   : AC-3
Format/Info                              : Audio Coding 3
Mode extension                           : CM (complete main)
Format settings, Endianness              : Big
Codec ID                                 : A_AC3
Duration                                 : 2h 1mn
Bit rate mode                            : Constant
Bit rate                                 : 640 Kbps
Channel(s)                               : 6 channels
Channel positions                        : Front: L C R, Side: L R, LFE
Sampling rate                            : 48.0 KHz
Compression mode                         : Lossy
Stream size                              : 557 MiB (7%)
Title                                    : Ac3 640 Kbps
Language                                 : English
Default                                  : Yes
Forced                                   : No





                                                                                                                                                                                                       

                                                                                                                       
                                                                                                                                                                                                                                                        The.Bad.Lieutenant.Port.Of.Call.New.Orleans.2009.LiMiTED.1080p.BluRay.x264-MELiTE.torrent (79.85 KB, 下载次数: 0)

回复

使用道具 举报

小黑屋|百度云资源论坛 |网站地图

本网站所有资源来自网络,如无意中侵犯了您的权益,请发邮件至 [email protected],立即清除相关链接

GMT+8, 2020-9-19 05:29 , Processed in 0.120124 second(s), 23 queries .

Powered by Discuz! X3.2

© 2001-2013 Comsenz Inc.

快速回复 返回顶部 返回列表