百度云资源论坛

 找回密码
 立即注册
搜索

百夫长/世纪战魂 Centurion.2010.LIMITED.1080p.BluRay.x264-iNFAMOUS 7.94GB

[复制链接]
电影首发 发表于 2015-11-15 11:17:00 | 显示全部楼层 |阅读模式

译  名 百夫长/世纪战魂
片  名 Centurion
年  代 2010
国  家 英国
类  别 动作/冒险/剧情/历史/惊悚/战争
语  言 英语
上映日期 2010-04-23
片  长 97 分钟
导  演 尼尔·马歇尔 Neil Marshall
主  演 迈克尔·法斯宾德 Michael Fassbender
      安德雷斯·魏斯涅夫斯基 Andreas Wisniewski
      大卫·勒格诺 Dave Legeno
      Axelle Carolyn
      多米尼克·威斯特 Dominic West
      洛尔·克拉克 Noel Clarke
      JJ·菲尔德 JJ Feild
      欧嘉·柯瑞兰寇 Olga Kurylenko
      伊莫琴·普茨 Imogen Poots


简  介


  公元117年,罗马帝国在不断扩狂。但在不列颠北部,扩张却遭到了当地野蛮人——皮克特人的阻拦。百夫长昆图斯(迈克尔·法斯宾德 Michael Fassbender 饰)因在皮克特人袭击中幸存而被任命带领罗马军团中的常胜军团——第九军团前去歼灭皮克特人。但第九军团还是遭到了皮克特人的伏击,军团统帅维流士将军(多米尼克·威斯特 Dominic West 饰)被俘。昆图斯与敌人殊死反抗,带着部分人逃出。他们不但要面对皮克特人的追捕,更希望可以救出将军。他们并不知道,全家被罗马人杀害,自己也被割了舌头的艾泰恩(欧嘉·柯瑞兰寇 Olga Kurylenko 饰)正充满了怒火在对他们展开捕杀。一场逃离罗马边境的危险反抗战正在打响……




Video
ID                                       : 1
Format                                   : AVC
Format/Info                              : Advanced Video Codec
Format profile                           : [email protected]
Format settings, CABAC                   : Yes
Format settings, ReFrames                : 5 frames
Codec ID                                 : V_MPEG4/ISO/AVC
Duration                                 : 1h 37mn
Bit rate                                 : 10.2 Mbps
Width                                    : 1 920 pixels
Height                                   : 816 pixels
Display aspect ratio                     : 2.35:1
Frame rate mode                          : Constant
Frame rate                               : 23.976 fps
Color space                              : YUV
Chroma subsampling                       : 4:2:0
Bit depth                                : 8 bits
Scan type                                : Progressive
Bits/(Pixel*Frame)                       : 0.270
Stream size                              : 6.76 GiB (85%)
Writing library                          : x264 core 104 r1688 0b36c6d
Encoding settings                        : cabac=1 / ref=5 / deblock=1:0:0 / analyse=0x3:0x133 / me=umh / subme=7 / psy=1 / psy_rd=1.00:0.00 / mixed_ref=1 / me_range=16 / chroma_me=1 / trellis=1 / 8x8dct=1 / cqm=0 / deadzone=21,11 / fast_pskip=0 / chroma_qp_offset=-2 / threads=12 / sliced_threads=0 / nr=0 / decimate=1 / interlaced=0 / constrained_intra=0 / bframes=3 / b_pyramid=2 / b_adapt=1 / b_bias=0 / direct=1 / weightb=1 / open_gop=0 / weightp=2 / keyint=250 / keyint_min=23 / scenecut=40 / intra_refresh=0 / rc_lookahead=40 / rc=2pass / mbtree=1 / bitrate=10154 / ratetol=1.0 / qcomp=0.60 / qpmin=10 / qpmax=51 / qpstep=4 / cplxblur=20.0 / qblur=0.5 / ip_ratio=1.40 / aq=1:1.00
Language                                 : English
Default                                  : Yes
Forced                                   : No

Audio
ID                                       : 2
Format                                   : DTS
Format/Info                              : Digital Theater Systems
Mode                                     : 16
Format settings, Endianness              : Big
Codec ID                                 : A_DTS
Duration                                 : 1h 37mn
Bit rate mode                            : Constant
Bit rate                                 : 1 509 Kbps
Channel(s)                               : 6 channels
Channel positions                        : Front: L C R, Side: L R, LFE
Sampling rate                            : 48.0 KHz
Bit depth                                : 16 bits
Compression mode                         : Lossy
Stream size                              : 1.03 GiB (13%)
Language                                 : English
Default                                  : Yes
Forced                                   : No





                                                                                                                                                                                                       

                                                                                                                       
                                                                                                                                                                                                                                                        Centurion.2010.LIMITED.1080p.BluRay.x264-iNFAMOUS.torrent (79.98 KB, 下载次数: 0)

回复

使用道具 举报

小黑屋|百度云资源论坛 |网站地图

本网站所有资源来自网络,如无意中侵犯了您的权益,请发邮件至 [email protected],立即清除相关链接

GMT+8, 2020-9-21 14:25 , Processed in 0.142442 second(s), 23 queries .

Powered by Discuz! X3.2

© 2001-2013 Comsenz Inc.

快速回复 返回顶部 返回列表