百度云资源论坛

 找回密码
 立即注册
搜索

[剧情片] 耻/耻辱/声名狼藉/屈辱 Disgrace.2008.1080p.BluRay.x264.DTS-FGT 8.83GB

[复制链接]
电影首发 发表于 2015-11-15 11:17:00 | 显示全部楼层 |阅读模式

译  名 耻/耻辱/声名狼藉/屈辱
片  名 Disgrace
年  代 2008
国  家 澳大利亚/南非
类  别 剧情
语  言 英语
上映日期 2008-09-06(多伦多电影节)
片  长 119分钟
导  演 史蒂夫·雅各布 Steve Jacobs
主  演 约翰·马尔科维奇 John Malkovich
      杰西卡·海恩斯 Jessica Haines
      艾瑞克·艾伯纳尼 Eriq Ebouaney
      Fiona Press
      Antoinette Engel
      娜塔莉·贝克尔 Natalie Becker


简  介


  大卫·卢里(约翰·马尔科维奇 John Malkovich 饰)在开普敦一所大学持教,然而年过五旬的他却因诱骗并与女学生发生关系而被学校惩处。在学校组织的听证会上,大卫对校方的指控供认不讳,却没有半丝悔改之意。被迫辞职的大卫来到山区小镇女儿露西(杰西卡·海恩斯 Jessica Haines 饰)的农场,却意外遭遇入室抢劫以及三个歹徒对女儿实施强奸,大卫因自己的无能为力感到十分自责,可是女儿对这件事情的冷处理态度则让大卫大动肝火,加之女儿对黑人邻居的一再让步则让他更为不解。大卫感觉到羞耻,他感觉自己就像狗一样活着……
  该片改编自同名诺贝尔文学奖获奖小说,并于2008年获得中东电影节最佳影片奖以及多伦多电影节的国际影评人联盟奖。




Video
ID                                       : 1
Format                                   : AVC
Format/Info                              : Advanced Video Codec
Format profile                           : [email protected]
Format settings, CABAC                   : Yes
Format settings, ReFrames                : 5 frames
Codec ID                                 : V_MPEG4/ISO/AVC
Duration                                 : 1h 58mn
Bit rate                                 : 8 970 Kbps
Width                                    : 1 920 pixels
Height                                   : 824 pixels
Display aspect ratio                     : 2.35:1
Frame rate mode                          : Constant
Frame rate                               : 24.000 fps
Color space                              : YUV
Chroma subsampling                       : 4:2:0
Bit depth                                : 8 bits
Scan type                                : Progressive
Bits/(Pixel*Frame)                       : 0.236
Stream size                              : 7.41 GiB (84%)
Writing library                          : x264 core 114 r1913 5fd3dce
Encoding settings                        : cabac=1 / ref=5 / deblock=1:0:0 / analyse=0x3:0x133 / me=umh / subme=7 / psy=1 / psy_rd=1.00:0.00 / mixed_ref=1 / me_range=16 / chroma_me=1 / trellis=1 / 8x8dct=1 / cqm=0 / deadzone=21,11 / fast_pskip=0 / chroma_qp_offset=-2 / threads=6 / sliced_threads=0 / nr=0 / decimate=1 / interlaced=0 / constrained_intra=0 / bframes=3 / b_pyramid=2 / b_adapt=1 / b_bias=0 / direct=3 / weightb=1 / open_gop=0 / weightp=2 / keyint=250 / keyint_min=23 / scenecut=40 / intra_refresh=0 / rc_lookahead=40 / rc=crf / mbtree=1 / crf=20.0 / qcomp=0.60 / qpmin=0 / qpmax=69 / qpstep=4 / ip_ratio=1.40 / aq=1:1.00
Language                                 : English
Default                                  : Yes
Forced                                   : No

Audio
ID                                       : 2
Format                                   : DTS
Format/Info                              : Digital Theater Systems
Mode                                     : 16
Format settings, Endianness              : Big
Codec ID                                 : A_DTS
Duration                                 : 1h 58mn
Bit rate mode                            : Constant
Bit rate                                 : 1 509 Kbps
Channel(s)                               : 6 channels
Channel positions                        : Front: L C R, Side: L R, LFE
Sampling rate                            : 48.0 KHz
Bit depth                                : 24 bits
Compression mode                         : Lossy
Stream size                              : 1.25 GiB (14%)
Language                                 : English
Default                                  : Yes
Forced                                   : No






                                                                                                                                                                                                       

                                                                                                                       
                                                                                                                                                                                                                                                        Disgrace.2008.1080p.BluRay.x264.DTS-FGT.torrent (88.95 KB, 下载次数: 0)

回复

使用道具 举报

小黑屋|百度云资源论坛 |网站地图

本网站所有资源来自网络,如无意中侵犯了您的权益,请发邮件至 [email protected],立即清除相关链接

GMT+8, 2020-9-21 13:28 , Processed in 0.101186 second(s), 23 queries .

Powered by Discuz! X3.2

© 2001-2013 Comsenz Inc.

快速回复 返回顶部 返回列表