百度云资源论坛

 找回密码
 立即注册
搜索

[犯罪片] 拯救上帝 Saving.God.2008.1080p.BluRay.x264.DTS-FGT 7.36GB

[复制链接]
电影首发 发表于 2015-11-15 11:17:00 | 显示全部楼层 |阅读模式

译  名 拯救上帝
片  名 Saving God
年  代 2008
国  家 加拿大
类  别 犯罪/剧情
语  言 英语
上映日期 2008-10-14
片  长 101 分钟
导  演 Duane Crichton
主  演 文·瑞姆斯 Ving Rhames
      迪恩·麦克德蒙特 Dean McDermott
      利卡多·查维拉 Ricardo Chavira


简  介


  被判有罪的牧师阿姆斯特朗逃回到自己的家乡,他化身为一个前来承包他父亲旧教堂的外乡人,这里充斥着毒品和帮派,阿姆斯特朗拥有强硬的态度和坚定的信念,他试图有所作为,拒绝和诺里斯(一个徘徊于堕落与犯罪边缘的年轻人)同流合污。阿姆斯特朗还必须面对自己曾经的罪恶生涯,避免重蹈覆辙。




Video
ID                                       : 1
Format                                   : AVC
Format/Info                              : Advanced Video Codec
Format profile                           : [email protected]
Format settings, CABAC                   : Yes
Format settings, ReFrames                : 4 frames
Codec ID                                 : V_MPEG4/ISO/AVC
Duration                                 : 1h 40mn
Bit rate                                 : 8 725 Kbps
Width                                    : 1 920 pixels
Height                                   : 1 080 pixels
Display aspect ratio                     : 16:9
Frame rate mode                          : Constant
Frame rate                               : 24.000 fps
Color space                              : YUV
Chroma subsampling                       : 4:2:0
Bit depth                                : 8 bits
Scan type                                : Progressive
Bits/(Pixel*Frame)                       : 0.175
Stream size                              : 6.15 GiB (84%)
Writing library                          : x264 core 116 r2074 2641b9e
Encoding settings                        : cabac=1 / ref=4 / deblock=1:0:0 / analyse=0x3:0x113 / me=umh / subme=7 / psy=1 / psy_rd=1.00:0.00 / mixed_ref=1 / me_range=16 / chroma_me=1 / trellis=1 / 8x8dct=1 / cqm=0 / deadzone=21,11 / fast_pskip=0 / chroma_qp_offset=-2 / threads=6 / sliced_threads=0 / nr=0 / decimate=1 / interlaced=0 / bluray_compat=0 / constrained_intra=0 / bframes=3 / b_pyramid=2 / b_adapt=1 / b_bias=0 / direct=1 / weightb=1 / open_gop=0 / weightp=2 / keyint=250 / keyint_min=24 / scenecut=40 / intra_refresh=0 / rc_lookahead=40 / rc=crf / mbtree=1 / crf=20.0 / qcomp=0.60 / qpmin=0 / qpmax=69 / qpstep=4 / ip_ratio=1.40 / aq=1:1.00
Language                                 : English
Default                                  : Yes
Forced                                   : No

Audio
ID                                       : 2
Format                                   : DTS
Format/Info                              : Digital Theater Systems
Mode                                     : 16
Format settings, Endianness              : Big
Codec ID                                 : A_DTS
Duration                                 : 1h 40mn
Bit rate mode                            : Constant
Bit rate                                 : 1 509 Kbps
Channel(s)                               : 6 channels
Channel positions                        : Front: L C R, Side: L R, LFE
Sampling rate                            : 48.0 KHz
Bit depth                                : 24 bits
Compression mode                         : Lossy
Stream size                              : 1.06 GiB (14%)
Language                                 : English
Default                                  : Yes
Forced                                   : No

Menu
00:00:00.000                             : en:00:00:00.000
00:05:17.875                             : en:00:05:17.875
00:11:03.958                             : en:00:11:03.958
00:19:20.750                             : en:00:19:20.750
00:33:37.625                             : en:00:33:37.625
00:41:46.417                             : en:00:41:46.417
00:51:25.208                             : en:00:51:25.208
01:00:00.292                             : en:01:00:00.292
01:11:06.208                             : en:01:11:06.208
01:20:15.042                             : en:01:20:15.042
01:27:35.042                             : en:01:27:35.042
01:31:19.042                             : en:01:31:19.042





                                                                                                                                                                                                       

                                                                                                                       
                                                                                                                                                                                                                                                        Disgrace.2008.1080p.BluRay.x264.DTS-FGT.torrent (88.95 KB, 下载次数: 0)

回复

使用道具 举报

小黑屋|百度云资源论坛 |网站地图

本网站所有资源来自网络,如无意中侵犯了您的权益,请发邮件至 [email protected],立即清除相关链接

GMT+8, 2020-4-9 05:52 , Processed in 0.089322 second(s), 23 queries .

Powered by Discuz! X3.2

© 2001-2013 Comsenz Inc.

快速回复 返回顶部 返回列表