百度云资源论坛

 找回密码
 立即注册
搜索

夺魂杀/3D夺魂杀 Scar.2007.1080p.BluRay.x264.DD5.1-FGT 7.28GB

[复制链接]
电影首发 发表于 2015-11-15 11:17:00 | 显示全部楼层 |阅读模式

译  名 夺魂杀/3D夺魂杀
片  名 Scar
年  代 2007
国  家 美国
类  别 犯罪/恐怖/惊悚
语  言 英语
上映日期 2007-05-20
片  长 90 分钟/USA: 83 分钟
导  演 Jed Weintrob
主  演 Angela Bettis
      Kirby Bliss Blanton
      Devon Graye


简  介


  20世纪90年代初,美国科罗拉多州欧维德小镇。17岁的少女琼·布洛斯(布瑞特妮·威尔森 Brittney Wilson 饰)和好友苏珊(Tegan Moss 饰)结识了带着几分阴冷和神秘气质的殡仪馆馆长毕肖普(本·柯顿 Ben Cotton 饰),谁知这却成了一场悲剧的开始。她们被毕肖普囚禁,并且遭受了极度痛苦和非人的虐待。琼虽然侥幸逃出,但是已永远失去了她的朋友,其心中也留下难以磨灭的伤痕。
  16年后,琼(安吉拉·贝蒂斯 Angela Bettis 饰)驱车回到了阔别已久的欧维德小镇,见到了美丽的侄女奥莉皮娅(Kirby Bliss Blanton 饰)。然而与此同时,与当年类似的虐杀案件接连发生。琼深藏心中的恐怖记忆不仅由此复苏,甚至她也成了重大的嫌疑人……





Video
ID                                       : 1
Format                                   : AVC
Format/Info                              : Advanced Video Codec
Format profile                           : [email protected]
Format settings, CABAC                   : Yes
Format settings, ReFrames                : 4 frames
Codec ID                                 : V_MPEG4/ISO/AVC
Duration                                 : 1h 24mn
Bit rate                                 : 11.7 Mbps
Width                                    : 1 920 pixels
Height                                   : 1 080 pixels
Display aspect ratio                     : 16:9
Frame rate mode                          : Constant
Frame rate                               : 24.000 fps
Color space                              : YUV
Chroma subsampling                       : 4:2:0
Bit depth                                : 8 bits
Scan type                                : Progressive
Bits/(Pixel*Frame)                       : 0.236
Stream size                              : 6.76 GiB (93%)
Writing library                          : x264 core 122 r2184 5c85e0a
Encoding settings                        : cabac=1 / ref=4 / deblock=1:0:0 / analyse=0x3:0x113 / me=umh / subme=7 / psy=1 / psy_rd=1.00:0.00 / mixed_ref=1 / me_range=16 / chroma_me=1 / trellis=1 / 8x8dct=1 / cqm=0 / deadzone=21,11 / fast_pskip=0 / chroma_qp_offset=-2 / threads=6 / sliced_threads=0 / nr=0 / decimate=1 / interlaced=0 / bluray_compat=0 / constrained_intra=0 / bframes=3 / b_pyramid=2 / b_adapt=1 / b_bias=0 / direct=1 / weightb=1 / open_gop=0 / weightp=2 / keyint=250 / keyint_min=24 / scenecut=40 / intra_refresh=0 / rc_lookahead=40 / rc=2pass / mbtree=1 / bitrate=11746 / ratetol=1.0 / qcomp=0.60 / qpmin=0 / qpmax=69 / qpstep=4 / cplxblur=20.0 / qblur=0.5 / ip_ratio=1.40 / aq=1:1.00
Language                                 : English
Default                                  : Yes
Forced                                   : No

Audio
ID                                       : 2
Format                                   : AC-3
Format/Info                              : Audio Coding 3
Mode extension                           : CM (complete main)
Format settings, Endianness              : Big
Codec ID                                 : A_AC3
Duration                                 : 1h 24mn
Bit rate mode                            : Constant
Bit rate                                 : 640 Kbps
Channel(s)                               : 6 channels
Channel positions                        : Front: L C R, Side: L R, LFE
Sampling rate                            : 48.0 KHz
Compression mode                         : Lossy
Stream size                              : 385 MiB (5%)
Language                                 : English
Default                                  : Yes
Forced                                   : No

Menu
00:00:00.000                             : en:00:00:00.000
00:04:26.833                             : en:00:04:26.833
00:07:43.708                             : en:00:07:43.708
00:11:13.583                             : en:00:11:13.583
00:15:02.208                             : en:00:15:02.208
00:19:15.750                             : en:00:19:15.750
00:23:45.167                             : en:00:23:45.167
00:31:05.417                             : en:00:31:05.417
00:37:57.667                             : en:00:37:57.667
00:43:44.208                             : en:00:43:44.208
00:48:47.292                             : en:00:48:47.292
00:49:49.042                             : en:00:49:49.042
00:54:48.583                             : en:00:54:48.583
00:58:25.042                             : en:00:58:25.042
01:02:11.292                             : en:01:02:11.292
01:06:02.292                             : en:01:06:02.292
01:13:33.667                             : en:01:13:33.667
01:20:26.125                             : en:01:20:26.125





                                                                                                                                                                                                       

                                                                                                                       
                                                                                                                                                                                                                                                        Scar.2007.1080p.BluRay.x264.DD5.1-FGT.torrent (73.43 KB, 下载次数: 0)

回复

使用道具 举报

小黑屋|百度云资源论坛 |网站地图

本网站所有资源来自网络,如无意中侵犯了您的权益,请发邮件至 [email protected],立即清除相关链接

GMT+8, 2020-9-19 03:57 , Processed in 0.106675 second(s), 23 queries .

Powered by Discuz! X3.2

© 2001-2013 Comsenz Inc.

快速回复 返回顶部 返回列表