百度云资源论坛

 找回密码
 立即注册
搜索

[剧情片] 影子的赞歌 Shadows.and.Lies.2010.1080p.BluRay.x264.DTS-FGT 4.52GB

[复制链接]
电影首发 发表于 2015-11-15 11:17:00 | 显示全部楼层 |阅读模式

译  名 影子的赞歌
片  名 Shadows & Lies
年  代 2010
国  家 美国
类  别 剧情
语  言 英语
上映日期 2010-04-25(Tribeca Film Festival)
导  演 Jay Anania
主  演 詹姆斯·弗兰科 James Franco
      朱丽安妮·尼科尔森 Julianne Nicholson
      乔什·卢卡斯 Josh Lucas
      马丁·唐文 Martin Donovan


简  介


  影片讲述了JF扮演的William 刚刚结束漂流生活回到纽约,认识了一个叫Ann的女人,这个女人被卷入了一场犯罪活动,William想要解救Ann,但他要对付的人正是曾经雇他从事各种违法活动的黑帮头目。






Video
ID                                       : 1
Format                                   : AVC
Format/Info                              : Advanced Video Codec
Format profile                           : [email protected]
Format settings, CABAC                   : Yes
Format settings, ReFrames                : 4 frames
Codec ID                                 : V_MPEG4/ISO/AVC
Duration                                 : 1h 40mn
Bit rate                                 : 4 787 Kbps
Width                                    : 1 920 pixels
Height                                   : 1 080 pixels
Display aspect ratio                     : 16:9
Frame rate mode                          : Constant
Frame rate                               : 23.976 fps
Color space                              : YUV
Chroma subsampling                       : 4:2:0
Bit depth                                : 8 bits
Scan type                                : Progressive
Bits/(Pixel*Frame)                       : 0.096
Stream size                              : 3.37 GiB (75%)
Writing library                          : x264 core 138 r2358 9e941d1
Encoding settings                        : cabac=1 / ref=4 / deblock=1:-3:-3 / analyse=0x3:0x133 / me=umh / subme=7 / psy=1 / psy_rd=1.00:0.15 / mixed_ref=1 / me_range=16 / chroma_me=1 / trellis=1 / 8x8dct=1 / cqm=0 / deadzone=21,11 / fast_pskip=0 / chroma_qp_offset=-3 / threads=18 / lookahead_threads=3 / sliced_threads=0 / nr=0 / decimate=1 / interlaced=0 / bluray_compat=0 / constrained_intra=0 / bframes=3 / b_pyramid=2 / b_adapt=1 / b_bias=0 / direct=3 / weightb=1 / open_gop=0 / weightp=2 / keyint=240 / keyint_min=23 / scenecut=40 / intra_refresh=0 / rc_lookahead=40 / rc=crf / mbtree=1 / crf=20.0 / qcomp=0.60 / qpmin=10 / qpmax=51 / qpstep=4 / ip_ratio=1.40 / aq=1:1.00
Language                                 : English
Default                                  : Yes
Forced                                   : No

Audio
ID                                       : 2
Format                                   : DTS
Format/Info                              : Digital Theater Systems
Mode                                     : 16
Format settings, Endianness              : Big
Codec ID                                 : A_DTS
Duration                                 : 1h 40mn
Bit rate mode                            : Constant
Bit rate                                 : 1 509 Kbps
Channel(s)                               : 6 channels
Channel positions                        : Front: L C R, Side: L R, LFE
Sampling rate                            : 48.0 KHz
Bit depth                                : 24 bits
Compression mode                         : Lossy
Stream size                              : 1.06 GiB (23%)
Language                                 : English
Default                                  : Yes
Forced                                   : No

Menu
00:00:00.000                             : en:00:00:00.000
00:07:59.938                             : en:00:07:59.938
00:15:59.959                             : en:00:15:59.959
00:23:59.938                             : en:00:23:59.938
00:31:59.960                             : en:00:31:59.960
00:39:59.981                             : en:00:39:59.981
00:47:59.919                             : en:00:47:59.919
00:55:59.898                             : en:00:55:59.898
01:03:59.919                             : en:01:03:59.919
01:11:59.941                             : en:01:11:59.941
01:19:59.920                             : en:01:19:59.920
01:27:59.858                             : en:01:27:59.858





                                                                                                                                                                                                       

                                                                                                                       
                                                                                                                                                                                                                                                        Shadows.and.Lies.2010.1080p.BluRay.x264.DTS-FGT.torrent (91 KB, 下载次数: 0)

回复

使用道具 举报

小黑屋|百度云资源论坛 |网站地图

本网站所有资源来自网络,如无意中侵犯了您的权益,请发邮件至 [email protected],立即清除相关链接

GMT+8, 2020-9-24 20:20 , Processed in 0.098800 second(s), 23 queries .

Powered by Discuz! X3.2

© 2001-2013 Comsenz Inc.

快速回复 返回顶部 返回列表