百度云资源论坛

 找回密码
 立即注册
搜索

[动作片] 霍比特人3:五军之战[加长版]2014.EXTENDED.1080p.BluRy.X264-AMIABLE 13.15GB ... ...

[复制链接]
电影首发 发表于 2015-11-15 11:17:00 | 显示全部楼层 |阅读模式

译  名 霍比特人3:五军之战/哈比人:五军之战(港台)/哈比人:奇境再返(台)/哈比人:汗血回归/指环王前传:霍比特人(下)/霍比特人3:去而复返
片  名 The Hobbit: The Battle of the Five Armies
年  代 2014
国  家 美国/新西兰
类  别 动作/奇幻/冒险
语  言 英语
上映日期 2014-12-01(伦敦首映)/2014-12-17(美国)/2015-01-23(中国大陆)
片  长 174分钟(加长版)
导  演 彼得·杰克逊 Peter Jackson
主  演 马丁·弗瑞曼 Martin Freeman
      伊恩·麦克莱恩 Ian McKellen
      理查德·阿米蒂奇 Richard Armitage
      伊万杰琳·莉莉 Evangeline Lilly
      李·佩斯 Lee Pace
      卢克·伊万斯 Luke Evans
      本尼迪克特·康伯巴奇 Benedict Cumberbatch
      肯·斯托特 Ken Stott
      詹姆斯·内斯比特 James Nesbitt
      比利·康诺利 Billy Connolly
      凯特·布兰切特 Cate Blanchett
      伊安·霍姆 Ian Holm
      克里斯托弗·李 Christopher Lee
      雨果·维文 Hugo Weaving
      奥兰多·布鲁姆 Orlando Bloom
      马努·贝内特 Manu Bennett
      艾丹·特纳 Aidan Turner
      迪恩·奥戈曼 Dean O'Gorman
      格拉汉姆·麦克泰维什 Graham McTavish
      斯蒂芬·弗雷 Stephen Fry
      米卡埃尔·佩斯布兰特 Mikael Persbrandt


简  介


  被吵醒的史矛革大闹长湖镇,最终为人类巴德(卢克·伊万斯 Luke Evans 饰)射杀。索林·橡木盾(理查德·阿米蒂奇 Richard Armitage 饰)多年的夙愿终于实现,孤山埃尔波尔重新回到矮人手中。然而这位矮人王子仿佛被史矛革的贪婪和堆成山的黄金迷惑了心窍,他 疯狂地搜寻象征王位的阿肯宝石,不仅撕毁了付给长湖镇报酬的约定,更拒绝了精灵王(李·佩斯 Lee Pace 饰)索要本族国宝的要求,为此导致三族的战争一触即发。与此同时,苍白半兽人阿索格率领大军浩浩荡荡向孤山逼近。得知消息的灰袍巫师甘道夫(伊恩·麦凯伦 Ian McKellen 饰)从中调停斡旋,而被索林视为唯一朋友的霍比特人比尔博·巴金斯(马丁·弗里曼 Martin John C. Freeman 饰)则掌握着中土命运的关键。五军会战,爆发在即!
  本片根据J.R.R·托尔金的同名原著改编,为霍比特人系列的最后一部。


获奖情况


  第87届奥斯卡金像奖 (2015)
  最佳音效剪辑(提名)


  第17届美国青少年选择奖 (2015)
  最佳科幻/奇幻电影(提名)


Video
ID                                       : 1
Format                                   : AVC
Format/Info                              : Advanced Video Codec
Format profile                           : [email protected]
Format settings, CABAC                   : Yes
Format settings, ReFrames                : 5 frames
Codec ID                                 : V_MPEG4/ISO/AVC
Duration                                 : 2h 44mn
Bit rate                                 : 9 940 Kbps
Width                                    : 1 920 pixels
Height                                   : 800 pixels
Display aspect ratio                     : 2.40:1
Frame rate mode                          : Constant
Frame rate                               : 23.976 fps
Color space                              : YUV
Chroma subsampling                       : 4:2:0
Bit depth                                : 8 bits
Scan type                                : Progressive
Bits/(Pixel*Frame)                       : 0.270
Stream size                              : 11.1 GiB (85%)
Writing library                          : x264 core 148 r2638 7599210
Encoding settings                        : cabac=1 / ref=5 / deblock=1:-3:-3 / analyse=0x3:0x113 / me=umh / subme=8 / psy=1 / psy_rd=1.00:0.00 / mixed_ref=1 / me_range=16 / chroma_me=1 / trellis=1 / 8x8dct=1 / cqm=0 / deadzone=21,11 / fast_pskip=1 / chroma_qp_offset=-2 / threads=24 / lookahead_threads=4 / sliced_threads=0 / nr=0 / decimate=1 / interlaced=0 / bluray_compat=0 / constrained_intra=0 / bframes=3 / b_pyramid=2 / b_adapt=2 / b_bias=0 / direct=3 / weightb=1 / open_gop=0 / weightp=2 / keyint=240 / keyint_min=24 / scenecut=40 / intra_refresh=0 / rc_lookahead=50 / rc=2pass / mbtree=1 / bitrate=9940 / ratetol=1.0 / qcomp=0.60 / qpmin=0 / qpmax=69 / qpstep=4 / cplxblur=20.0 / qblur=0.5 / ip_ratio=1.40 / aq=1:1.00
Language                                 : English
Default                                  : Yes
Forced                                   : No

Audio
ID                                       : 2
Format                                   : DTS
Format/Info                              : Digital Theater Systems
Mode                                     : 16
Format settings, Endianness              : Big
Codec ID                                 : A_DTS
Duration                                 : 2h 44mn
Bit rate mode                            : Constant
Bit rate                                 : 1 509 Kbps
Channel(s)                               : 6 channels
Channel positions                        : Front: L C R, Side: L R, LFE
Sampling rate                            : 48.0 KHz
Bit depth                                : 24 bits
Compression mode                         : Lossy
Stream size                              : 1.73 GiB (13%)
Language                                 : English
Default                                  : Yes
Forced                                   : No

Text #1
ID                                       : 3
Format                                   : UTF-8
Codec ID                                 : S_TEXT/UTF8
Codec ID/Info                            : UTF-8 Plain Text
Language                                 : English
Default                                  : No
Forced                                   : No

Text #2
ID                                       : 4
Format                                   : UTF-8
Codec ID                                 : S_TEXT/UTF8
Codec ID/Info                            : UTF-8 Plain Text
Title                                    : SDH
Language                                 : English
Default                                  : No
Forced                                   : No

Menu
00:00:00.000                             : en:00:00:00.000
00:05:12.395                             : en:00:05:12.395
00:12:47.058                             : en:00:12:47.058
00:13:19.298                             : en:00:13:19.298
00:18:57.428                             : en:00:18:57.428
00:23:42.171                             : en:00:23:42.171
00:24:56.161                             : en:00:24:56.161
00:26:04.563                             : en:00:26:04.563
00:27:33.026                             : en:00:27:33.026
00:35:45.685                             : en:00:35:45.685
00:36:41.282                             : en:00:36:41.282
00:40:41.898                             : en:00:40:41.898
00:42:01.144                             : en:00:42:01.144
00:43:11.756                             : en:00:43:11.756
00:46:16.148                             : en:00:46:16.148
00:51:27.668                             : en:00:51:27.668
00:54:57.961                             : en:00:54:57.961
00:56:14.830                             : en:00:56:14.830
00:58:31.299                             : en:00:58:31.299
01:00:26.957                             : en:01:00:26.957
01:02:43.593                             : en:01:02:43.593
01:06:10.175                             : en:01:06:10.175
01:12:23.297                             : en:01:12:23.297
01:17:22.555                             : en:01:17:22.555
01:20:36.331                             : en:01:20:36.331
01:24:57.217                             : en:01:24:57.217
01:28:41.775                             : en:01:28:41.775
01:30:52.280                             : en:01:30:52.280
01:33:02.160                             : en:01:33:02.160
01:35:12.832                             : en:01:35:12.832
01:38:32.490                             : en:01:38:32.490
01:39:42.894                             : en:01:39:42.894
01:41:00.596                             : en:01:41:00.596
01:45:03.506                             : en:01:45:03.506
01:47:13.636                             : en:01:47:13.636
01:49:05.289                             : en:01:49:05.289
01:50:03.013                             : en:01:50:03.013
01:52:59.606                             : en:01:52:59.606
01:53:51.283                             : en:01:53:51.283
01:57:15.237                             : en:01:57:15.237
02:05:38.573                             : en:02:05:38.573
02:12:07.044                             : en:02:12:07.044
02:15:26.243                             : en:02:15:26.243
02:18:32.513                             : en:02:18:32.513
02:20:07.441                             : en:02:20:07.441
02:22:27.205                             : en:02:22:27.205
02:26:11.596                             : en:02:26:11.596
02:30:54.462                             : en:02:30:54.462

                                                                                                                                                                                                       

                                                                                                                       
                                                                                                                                                                                                                                                        The.Hobbit.The.Battle.of.the.Five.Armies.2014.EXTENDED.1080p.BluRay.X264-AMIABLE.torrent (66.8 KB, 下载次数: 0)

回复

使用道具 举报

小黑屋|百度云资源论坛 |网站地图

本网站所有资源来自网络,如无意中侵犯了您的权益,请发邮件至 [email protected],立即清除相关链接

GMT+8, 2020-3-28 22:39 , Processed in 0.089434 second(s), 23 queries .

Powered by Discuz! X3.2

© 2001-2013 Comsenz Inc.

快速回复 返回顶部 返回列表