百度云资源论坛

 找回密码
 立即注册
搜索

[犯罪片] X档案:征服未来 The.X.Files.1998.1080p.BluRay.x264-MUxHD 9.17GB

[复制链接]
电影首发 发表于 2015-11-15 11:17:00 | 显示全部楼层 |阅读模式

译  名 X档案:征服未来/X档案
片  名 The X Files
年  代 1998
国  家 加拿大/美国
类  别 犯罪/恐怖/悬疑/科幻/惊悚
语  言 英语
上映日期 1998-06-19
片  长 121 分钟
导  演 罗伯·鲍曼 Rob Bowman
主  演 大卫·杜楚尼 David Duchovny
      吉莲·安德森 Gillian Anderson
      约翰·内威尔 John Neville
      威廉·B·戴维斯 William B. Davis
      米彻·佩勒吉 Mitch Pileggi


简  介


  五年的追逐化为泡影,随着X档案的关闭,福克斯·穆德(大卫·杜楚尼 David Duchovny 饰)和丹娜·斯科莉(吉莲·安德森 Gillian Anderson 饰)被迫调任处理一些平常的案件。某天,美国得州达拉斯市发生一起爆炸案。虽然穆德和斯科莉极力疏散写字楼内的人群,但爆炸还是夺取了4名无辜者的性命,他们也因此受到上级的指摘。然而事后不久,穆德便得知4名牺牲者早在爆炸之前便已死亡,所谓爆炸案不过是某个神秘部门为了掩盖证据而实施的骗局。该部门据说多年来一直从事外星人的研究,并且他们的研究足以导致人类的毁灭。两名搭档决定彻查此事,但是神秘且难以抗拒的力量无时无刻不在阻挠他们追寻真相的脚步……
  本片为同名美剧的第一部剧场版。




Video
ID                                       : 1
Format                                   : AVC
Format/Info                              : Advanced Video Codec
Format profile                           : [email protected]
Format settings, CABAC                   : Yes
Format settings, ReFrames                : 5 frames
Codec ID                                 : V_MPEG4/ISO/AVC
Duration                                 : 2h 2mn
Bit rate                                 : 9 197 Kbps
Width                                    : 1 920 pixels
Height                                   : 816 pixels
Display aspect ratio                     : 2.35:1
Frame rate mode                          : Constant
Frame rate                               : 23.976 fps
Color space                              : YUV
Chroma subsampling                       : 4:2:0
Bit depth                                : 8 bits
Scan type                                : Progressive
Bits/(Pixel*Frame)                       : 0.245
Stream size                              : 7.70 GiB (84%)
Writing library                          : x264 core 140 r2377 1ca7bb9
Encoding settings                        : cabac=1 / ref=5 / deblock=1:0:0 / analyse=0x3:0x133 / me=umh / subme=7 / psy=1 / psy_rd=1.00:0.00 / mixed_ref=1 / me_range=16 / chroma_me=1 / trellis=1 / 8x8dct=1 / cqm=0 / deadzone=21,11 / fast_pskip=0 / chroma_qp_offset=-2 / threads=12 / lookahead_threads=2 / sliced_threads=0 / nr=0 / decimate=1 / interlaced=0 / bluray_compat=0 / constrained_intra=0 / bframes=3 / b_pyramid=2 / b_adapt=2 / b_bias=0 / direct=3 / weightb=1 / open_gop=0 / weightp=2 / keyint=240 / keyint_min=23 / scenecut=40 / intra_refresh=0 / rc_lookahead=50 / rc=2pass / mbtree=1 / bitrate=9197 / ratetol=1.0 / qcomp=0.60 / qpmin=0 / qpmax=69 / qpstep=4 / cplxblur=20.0 / qblur=0.5 / ip_ratio=1.40 / aq=1:1.00
Language                                 : English
Default                                  : Yes
Forced                                   : No

Audio
ID                                       : 2
Format                                   : DTS
Format/Info                              : Digital Theater Systems
Mode                                     : 16
Format settings, Endianness              : Big
Codec ID                                 : A_DTS
Duration                                 : 2h 2mn
Bit rate mode                            : Constant
Bit rate                                 : 1 509 Kbps
Channel(s)                               : 6 channels
Channel positions                        : Front: L C R, Side: L R, LFE
Sampling rate                            : 48.0 KHz
Bit depth                                : 24 bits
Compression mode                         : Lossy
Stream size                              : 1.29 GiB (14%)
Language                                 : English
Default                                  : Yes
Forced                                   : No





                                                                                                                                                                                                       

                                                                                                                       
                                                                                                                                                                                                                                                        The.X.Files.1998.1080p.BluRay.x264-MUxHD.torrent (92.27 KB, 下载次数: 0)

回复

使用道具 举报

小黑屋|百度云资源论坛 |网站地图

本网站所有资源来自网络,如无意中侵犯了您的权益,请发邮件至 [email protected],立即清除相关链接

GMT+8, 2020-12-1 05:40 , Processed in 0.107005 second(s), 23 queries .

Powered by Discuz! X3.2

© 2001-2013 Comsenz Inc.

快速回复 返回顶部 返回列表