百度云资源论坛

 找回密码
 立即注册
搜索

[科幻片] 鲨卷风2/鲨从天降2:再来一次 Sharknado.2.The.Second.One.2014.1080p.BluRay.x264-BRM ...

[复制链接]
电影首发 发表于 2015-11-15 11:17:00 | 显示全部楼层 |阅读模式

译  名 鲨卷风2/鲨从天降2:再来一次
片  名 Sharknado 2: The Second One
年  代 2014
国  家 美国
类  别 科幻/惊悚/恐怖
语  言 英语
字  幕 N/A
片  长 1h35mn
导  演 安东尼·C·费兰特
主  演 薇薇卡·福克斯
                  马克·麦克格拉斯
                  凯莉·奥斯本

简  介 


  充满不祥气息的夜空,芬·谢帕德(Ian Ziering 饰)和前妻艾波(塔拉·蕾德 Tara Reid 饰)乘坐某航班前往纽约。谁知途中遭遇了猛烈的鲨卷风,一条条凶猛的鲨鱼撞破机舱,许多人在灾难中死去。危机时刻,谢帕德力挽狂澜,终于成功将破烂不堪的飞机迫降地面,但艾波却落下终身残疾。惊魂未定的他向警方提出警告,预言鲨卷风即将袭击曼哈顿。未过多久,嗜血风暴降临,而芬的妹妹艾莲(凯丽·奥斯本 Kari Wuhrer 饰)一家正在这座喧嚣的大都会中。沉浸在赛场狂欢中的平民百姓,全然不知死神将近。

  为了拯救家人,芬告别艾波,义无反顾闯入了命运多舛的曼哈顿……


Video
ID                                       : 1
Format                                   : AVC
Format/Info                              : Advanced Video Codec
Format profile                           : [email protected]
Format settings, CABAC                   : Yes
Format settings, ReFrames                : 4 frames
Codec ID                                 : V_MPEG4/ISO/AVC
Duration                                 : 1h 35mn
Bit rate                                 : 10.5 Mbps
Width                                    : 1 920 pixels
Height                                   : 1 080 pixels
Display aspect ratio                     : 16:9
Frame rate mode                          : Constant
Frame rate                               : 23.976 fps
Color space                              : YUV
Chroma subsampling                       : 4:2:0
Bit depth                                : 8 bits
Scan type                                : Progressive
Bits/(Pixel*Frame)                       : 0.211
Stream size                              : 6.79 GiB (85%)
Writing library                          : x264 core 142 r2479 dd79a61
Encoding settings                        : cabac=1 / ref=4 / deblock=1:0:0 / analyse=0x3:0x133 / me=umh / subme=7 / psy=1 / psy_rd=1.00:0.00 / mixed_ref=1 / me_range=16 / chroma_me=1 / trellis=1 / 8x8dct=1 / cqm=0 / deadzone=21,11 / fast_pskip=0 / chroma_qp_offset=-2 / threads=12 / lookahead_threads=2 / sliced_threads=0 / nr=0 / decimate=1 / interlaced=0 / bluray_compat=0 / constrained_intra=0 / bframes=3 / b_pyramid=2 / b_adapt=1 / b_bias=0 / direct=1 / weightb=1 / open_gop=0 / weightp=2 / keyint=240 / keyint_min=23 / scenecut=40 / intra_refresh=0 / rc_lookahead=40 / rc=2pass / mbtree=1 / bitrate=10470 / ratetol=1.0 / qcomp=0.60 / qpmin=0 / qpmax=69 / qpstep=4 / cplxblur=20.0 / qblur=0.5 / ip_ratio=1.40 / aq=1:1.00
Language                                 : English
Default                                  : Yes
Forced                                   : No
DURATION                                 : 01:35:01.529000000
NUMBER_OF_FRAMES                         : 136700
NUMBER_OF_BYTES                          : 7459006344
_STATISTICS_WRITING_APP                  : mkvmerge v7.2.0 (\'On Every Street\') 32bit built on Sep 13 2014 15:42:11
_STATISTICS_WRITING_DATE_UTC             : 2014-10-08 02:06:50
_STATISTICS_TAGS                         : BPS DURATION NUMBER_OF_FRAMES NUMBER_OF_BYTES

Audio
ID                                       : 2
Format                                   : DTS
Format/Info                              : Digital Theater Systems
Mode                                     : 16
Format settings, Endianness              : Big
Codec ID                                 : A_DTS
Duration                                 : 1h 35mn
Bit rate mode                            : Constant
Bit rate                                 : 1 509 Kbps
Channel(s)                               : 6 channels
Channel positions                        : Front: L C R, Side: L R, LFE
Sampling rate                            : 48.0 KHz
Bit depth                                : 24 bits
Compression mode                         : Lossy
Stream size                              : 1.00 GiB (13%)
Language                                 : English
Default                                  : Yes
Forced                                   : No






                                                                                                                                                                                                       

                                                                                                                       
                                                                                                                                                                                                                                                        Sharknado.2.The.Second.One.2014.1080p.BluRay.x264-BRMP.torrent (80.1 KB, 下载次数: 0)

回复

使用道具 举报

小黑屋|百度云资源论坛 |网站地图

本网站所有资源来自网络,如无意中侵犯了您的权益,请发邮件至 [email protected],立即清除相关链接

GMT+8, 2020-4-4 19:02 , Processed in 0.092878 second(s), 23 queries .

Powered by Discuz! X3.2

© 2001-2013 Comsenz Inc.

快速回复 返回顶部 返回列表