百度云资源论坛

 找回密码
 立即注册
搜索

三枪拍案惊奇 A.Woman.A.Gun.And.A.Noodle.Shop.2009.1080p.BluRay.x264-aBD 6.55GB . ...

[复制链接]
电影首发 发表于 2015-11-14 09:04:00 | 显示全部楼层 |阅读模式

译  名 ASimpleNoodleStory
片  名 三枪拍案惊奇
年  代 2009
国  家 中国大陆/香港
类  别 剧情
语  言 汉语普通话/英语
上映日期 2009-12-11(中国大陆)/2009-12-24(香港)
片  长 95 分钟
导  演 张艺谋 Yimou Zhang
主  演 小沈阳 Xiao Shen-Yang
      闫妮 Ni Yan
      孙红雷 Honglei Sun
      倪大红 Dahong Ni
      程野 Ye Cheng
      毛毛 Mao Mao
      赵本山 Benshan Zhao


简  介


  荒漠中的麻子面馆,风情万种的老板娘(闫妮 饰)向波斯商人订购了一把左轮手枪,后者还展示了大炮的威力。炮声引来了巡逻队,老板娘跟情人李四(小沈阳 饰)将枪藏匿后,插科打诨,好饭招待,这才稳住了精明的队长(赵本山 饰)。队长的得力助手张三(孙红雷 饰)知悉老板娘与李四的暧昧关系,但未说破。原来,他跟老板(倪大红 饰)之间还有勾当。店员六暗恋店员七,二人被老板克扣工钱,同命相连,六曾试图向老板讨薪,惨遭痛骂。老板怀疑老板娘偷人,并对她动用死刑。密室中,张三告知老板真相,老板听后,怒不可遏,前去痛扁二人,被老板娘用手枪喝退。事后,老板与张三密谋买凶杀人,由此引发一场令人啼笑皆非的血案……
  本片改编自科恩兄弟的电影《血迷宫》,为张艺谋继奥运会开幕式后首度执导贺岁喜剧。




Video
ID                                       : 1
Format                                   : AVC
Format/Info                              : Advanced Video Codec
Format profile                           : [email protected]
Format settings, CABAC                   : Yes
Format settings, ReFrames                : 5 frames
Codec ID                                 : V_MPEG4/ISO/AVC
Duration                                 : 1h 30mn
Bit rate                                 : 8 915 Kbps
Width                                    : 1 920 pixels
Height                                   : 800 pixels
Display aspect ratio                     : 2.40:1
Frame rate mode                          : Constant
Frame rate                               : 23.976 fps
Color space                              : YUV
Chroma subsampling                       : 4:2:0
Bit depth                                : 8 bits
Scan type                                : Progressive
Bits/(Pixel*Frame)                       : 0.242
Stream size                              : 5.47 GiB (84%)
Writing library                          : x264 core 112 r1867 22bfd31
Encoding settings                        : cabac=1 / ref=5 / deblock=1:-1:-1 / analyse=0x3:0x113 / me=umh / subme=7 / psy=1 / psy_rd=1.00:0.00 / mixed_ref=1 / me_range=16 / chroma_me=1 / trellis=1 / 8x8dct=1 / cqm=0 / deadzone=21,11 / fast_pskip=1 / chroma_qp_offset=-2 / threads=12 / sliced_threads=0 / nr=0 / decimate=1 / interlaced=0 / constrained_intra=0 / bframes=3 / b_pyramid=2 / b_adapt=2 / b_bias=0 / direct=3 / weightb=1 / open_gop=0 / weightp=2 / keyint=250 / keyint_min=23 / scenecut=40 / intra_refresh=0 / rc_lookahead=40 / rc=2pass / mbtree=1 / bitrate=8915 / ratetol=1.0 / qcomp=0.60 / qpmin=0 / qpmax=51 / qpstep=4 / cplxblur=20.0 / qblur=0.5 / vbv_maxrate=50000 / vbv_bufsize=50000 / nal_hrd=none / ip_ratio=1.40 / aq=1:1.00
Language                                 : Chinese
Default                                  : Yes
Forced                                   : Yes

Audio
ID                                       : 2
Format                                   : DTS
Format/Info                              : Digital Theater Systems
Mode                                     : 16
Format settings, Endianness              : Big
Codec ID                                 : A_DTS
Duration                                 : 1h 30mn
Bit rate mode                            : Constant
Bit rate                                 : 1 509 Kbps
Channel(s)                               : 6 channels
Channel positions                        : Front: L C R, Side: L R, LFE
Sampling rate                            : 48.0 KHz
Bit depth                                : 24 bits
Compression mode                         : Lossy
Stream size                              : 972 MiB (14%)
Language                                 : Chinese
Default                                  : Yes
Forced                                   : Yes

Text
ID                                       : 3
Format                                   : UTF-8
Codec ID                                 : S_TEXT/UTF8
Codec ID/Info                            : UTF-8 Plain Text
Language                                 : English
Default                                  : Yes
Forced                                   : No





                                                                                                                                                                                                       

                                                                                                                       
                                                                                                                                                                                                                                                        A.Woman.A.Gun.And.A.Noodle.Shop.2009.1080p.BluRay.x264-aBD.torrent (66.07 KB, 下载次数: 0)

回复

使用道具 举报

小黑屋|百度云资源论坛 |网站地图

本网站所有资源来自网络,如无意中侵犯了您的权益,请发邮件至 [email protected],立即清除相关链接

GMT+8, 2020-11-28 07:49 , Processed in 0.107887 second(s), 23 queries .

Powered by Discuz! X3.2

© 2001-2013 Comsenz Inc.

快速回复 返回顶部 返回列表