百度云资源论坛

 找回密码
 立即注册
搜索

[剧情片] 梦女孩/梦幻女郎/追梦女郎 Dream.Girls.2006.720p.BluRay.x264.DD5.1-FGT 4.36GB ... ...

[复制链接]
电影首发 发表于 2015-11-14 09:04:00 | 显示全部楼层 |阅读模式

译  名 梦女孩/梦幻女郎/追梦女郎/寻梦女郎/梦女郎
片  名 Dreamgirls
年  代 2006
国  家 美国
类  别 剧情/音乐/歌舞
语  言 英语
上映日期 2006-12-25(美国)
片  长 130分钟
导  演 比尔·康顿 Bill Condon
主  演 杰米·福克斯 Jamie Foxx
      碧昂丝·诺尔斯 Beyoncé Knowles
      艾迪·墨菲 Eddie Murphy
      丹尼·格洛弗 Danny Glover
      詹妮弗·哈德森 Jennifer Hudson
      阿尼卡·诺尼·罗斯 Anika Noni Rose
      基斯·罗宾逊 Keith Robinson
      莎朗·莉尔 Sharon Leal


简  介


  60年代的底特律,3个黑人女孩蒂娜(碧昂丝•诺尔斯 Beyonce Knowles 饰)、埃菲 (詹妮弗•哈德森Jennifer Hudson 饰)和劳莱尔(阿尼卡•诺尼•罗斯Anika Noni Rose 饰)组成了“梦想”组合,一心要在选秀赛中开拓歌唱生涯。然而,比赛结果却令她们大失所望,柳暗花明的是,她们被经纪人柯蒂斯(杰米·福克斯 Jamie Foxx 饰)看中,雄心壮志的要把她们打造成受市场欢迎的流行歌手。
  于是,三个女孩的开始踏上充满未知的星途。柯蒂斯为他们设计了一整套方案,跟大牌歌手的舞台上表演和声,然后把重新定位组合中三个人的角色,让她们独立演出——歌喉最好但外形不足的埃菲被撤掉主唱的位置,而相貌出众的蒂娜则担当主唱。这使得组合内部掀起了风暴。三个歌手之间的关系开始在成名路上变得不再单纯, 埃菲和柯蒂斯之间的恩怨也在纠缠交织。


获奖情况


  第79届奥斯卡金像奖 (2007)
  最佳男配角(提名) 艾迪·墨菲
  最佳女配角 詹妮弗·哈德森
  最佳混音 Michael Minkler / Bob Beemer
  最佳美术指导(提名) 南茜·黑格 / 约翰·迈尔
  最佳服装设计(提名) 雪伦·戴维斯
  最佳原创歌曲(提名) Siedah Garrett


  第31届日本电影学院奖 (2008)
  最佳外语片(提名)


  第16届MTV电影奖 (2007)
  MTV电影奖 最佳表演(提名) 詹妮弗·哈德森 / 碧昂丝·诺尔斯



Video
ID                                       : 1
Format                                   : AVC
Format/Info                              : Advanced Video Codec
Format profile                           : [email protected]
Format settings, CABAC                   : Yes
Format settings, ReFrames                : 8 frames
Codec ID                                 : V_MPEG4/ISO/AVC
Duration                                 : 2h 10mn
Bit rate                                 : 4 157 Kbps
Width                                    : 1 280 pixels
Height                                   : 546 pixels
Display aspect ratio                     : 2.35:1
Frame rate mode                          : Constant
Frame rate                               : 23.976 fps
Color space                              : YUV
Chroma subsampling                       : 4:2:0
Bit depth                                : 8 bits
Scan type                                : Progressive
Bits/(Pixel*Frame)                       : 0.248
Stream size                              : 3.70 GiB (85%)
Writing library                          : x264 core 84 r1416 fcf70c2
Encoding settings                        : cabac=1 / ref=8 / deblock=1:-3:-3 / analyse=0x3:0x113 / me=umh / subme=9 / psy=1 / psy_rd=1.1:0.1 / mixed_ref=1 / me_range=32 / chroma_me=1 / trellis=2 / 8x8dct=1 / cqm=2 / deadzone=21,11 / fast_pskip=0 / chroma_qp_offset=-2 / threads=6 / sliced_threads=0 / nr=0 / decimate=1 / mbaff=0 / constrained_intra=0 / bframes=3 / b_pyramid=2 / b_adapt=2 / b_bias=0 / direct=3 / wpredb=1 / wpredp=2 / keyint=250 / keyint_min=25 / scenecut=40 / intra_refresh=0 / rc_lookahead=40 / rc=2pass / mbtree=1 / bitrate=4157 / ratetol=1.0 / qcomp=0.60 / qpmin=10 / qpmax=51 / qpstep=4 / cplxblur=20.0 / qblur=0.5 / vbv_maxrate=50000 / vbv_bufsize=50000 / ip_ratio=1.40 / aq=1:0.80
Language                                 : English
Default                                  : Yes
Forced                                   : No

Audio
ID                                       : 2
Format                                   : AC-3
Format/Info                              : Audio Coding 3
Mode extension                           : CM (complete main)
Format settings, Endianness              : Big
Codec ID                                 : A_AC3
Duration                                 : 2h 10mn
Bit rate mode                            : Constant
Bit rate                                 : 640 Kbps
Channel(s)                               : 6 channels
Channel positions                        : Front: L C R, Side: L R, LFE
Sampling rate                            : 48.0 KHz
Compression mode                         : Lossy
Stream size                              : 596 MiB (13%)
Language                                 : English
Default                                  : Yes
Forced                                   : No





                                                                                                                                                                                                       

                                                                                                                       
                                                                                                                                                                                                                                                        Dream.Girls.2006.720p.BluRay.x264.DD5.1-FGT.torrent (87.87 KB, 下载次数: 0)

回复

使用道具 举报

小黑屋|百度云资源论坛 |网站地图

本网站所有资源来自网络,如无意中侵犯了您的权益,请发邮件至 [email protected],立即清除相关链接

GMT+8, 2020-9-24 02:27 , Processed in 0.106149 second(s), 23 queries .

Powered by Discuz! X3.2

© 2001-2013 Comsenz Inc.

快速回复 返回顶部 返回列表