百度云资源论坛

 找回密码
 立即注册
搜索

[动画片] 攻壳机动队 Ghost.in.the.Shell.1995.1080p.BluRay.x264-MANGACiTY 4.36GB

[复制链接]
电影首发 发表于 2015-11-14 09:04:00 | 显示全部楼层 |阅读模式

译  名 攻壳机动队
片  名 攻殻機動隊
年  代 1995
国  家 日本/美国
类  别 动画/动作/科幻/奇幻/惊悚
语  言 日语/英语/西班牙语
上映日期 1995-11-18(日本)
片  长 83分钟
导  演 押井守 Mamoru Oshii
主  演 田中敦子 Atsuko Tanaka
      大冢明夫 Akio Ôtsuka
      山寺宏一 Kôichi Yamadera
      大木民夫 Tamio Ôki
      家弓家正 Iemasa Kayumi
      仲野裕


简  介


  公元2029年,未来世界是高科技与信息化的世界。人类生活水平的提高伴随着犯罪活动的高科技化,于是,专门镇压高科技犯罪的特殊部队——公安9课成立了。队长草薙素子,作为一位全身“义体化”的女警,带领公安9课不断展开行动。
  是次,公安9课帮助公安6课秘密解决了一位程序员外逃他国的麻烦琐事,又卷入传说中的黑客“傀儡师”的犯罪事件。当行动陷入僵局之际,傀儡师竟然不请自来,出现在公安9课!素子与她的战友们,不知不觉地被卷入了一场涉及政府的阴谋之中。




Video
ID                                       : 1
Format                                   : AVC
Format/Info                              : Advanced Video Codec
Format profile                           : [email protected]
Format settings, CABAC                   : Yes
Format settings, ReFrames                : 4 frames
Codec ID                                 : V_MPEG4/ISO/AVC
Duration                                 : 1h 22mn
Bit rate                                 : 6 789 Kbps
Width                                    : 1 920 pixels
Height                                   : 1 040 pixels
Display aspect ratio                     : 1.85:1
Frame rate mode                          : Constant
Frame rate                               : 23.976 fps
Color space                              : YUV
Chroma subsampling                       : 4:2:0
Bit depth                                : 8 bits
Scan type                                : Progressive
Bits/(Pixel*Frame)                       : 0.142
Stream size                              : 3.84 GiB (88%)
Writing library                          : x264 core 66 r1097M e404f35
Encoding settings                        : cabac=1 / ref=4 / deblock=1:-3:-2 / analyse=0x3:0x113 / me=umh / subme=9 / psy_rd=1.0:0.0 / mixed_ref=1 / me_range=32 / chroma_me=1 / trellis=2 / 8x8dct=1 / cqm=0 / deadzone=21,11 / chroma_qp_offset=-4 / threads=3 / nr=0 / decimate=1 / mbaff=0 / bframes=3 / b_pyramid=1 / b_adapt=2 / b_bias=0 / direct=3 / wpredb=0 / keyint=250 / keyint_min=25 / scenecut=40(pre) / rc=2pass / bitrate=6789 / ratetol=1.0 / qcomp=0.60 / qpmin=10 / qpmax=51 / qpstep=4 / cplxblur=20.0 / qblur=0.5 / vbv_maxrate=40000 / vbv_bufsize=40000 / ip_ratio=1.40 / pb_ratio=1.30 / aq=1:0.80 / zones=112171,118659,q=25
Default                                  : Yes
Forced                                   : No

Audio
ID                                       : 2
Format                                   : DTS
Format/Info                              : Digital Theater Systems
Format profile                           : ES
Mode                                     : 16
Format settings, Endianness              : Big
Codec ID                                 : A_DTS
Duration                                 : 1h 22mn
Bit rate mode                            : Constant
Bit rate                                 : 755 Kbps
Channel(s)                               : 7 channels / 6 channels
Channel positions                        : Front: L C R, Side: L R, Back: C, LFE / Front: L C R, Side: L R, LFE
Sampling rate                            : 48.0 KHz
Bit depth                                : 24 bits
Compression mode                         : Lossy
Stream size                              : 448 MiB (10%)
Language                                 : Japanese
Default                                  : Yes
Forced                                   : No

Text
ID                                       : 3
Format                                   : UTF-8
Codec ID                                 : S_TEXT/UTF8
Codec ID/Info                            : UTF-8 Plain Text
Language                                 : English
Default                                  : Yes
Forced                                   : Yes





                                                                                                                                                                                                       

                                                                                                                       
                                                                                                                                                                                                                                                        Ghost.in.the.Shell.1995.1080p.BluRay.x264-MANGACiTY.torrent (87.83 KB, 下载次数: 0)

回复

使用道具 举报

小黑屋|百度云资源论坛 |网站地图

本网站所有资源来自网络,如无意中侵犯了您的权益,请发邮件至 [email protected],立即清除相关链接

GMT+8, 2020-12-1 01:55 , Processed in 0.129771 second(s), 23 queries .

Powered by Discuz! X3.2

© 2001-2013 Comsenz Inc.

快速回复 返回顶部 返回列表