百度云资源论坛

 找回密码
 立即注册
搜索

[动作片] 机器战警/机械战警 RoboCop.1987.REMASTERED.DC.1080p.BluRay.X264-AMIABLE 10.92GB . ...

[复制链接]
电影首发 发表于 2015-11-14 09:04:00 | 显示全部楼层 |阅读模式

译  名 机器战警/机器战警(台)/铁甲威龙(港)/机械战警/威龙争雄
片  名 RoboCop
年  代 1987
国  家 美国
类  别 动作/犯罪/剧情/科幻/惊悚
语  言 英语
上映日期 1987-07-17
片  长 102 分钟/Germany: 78 分钟(cut version)/Norway: 98 分钟(cut version)/USA: 103 分钟(unrated director's cut)/Finland: 91 分钟(heavily cut)
导  演 保罗·范霍文 Paul Verhoeven
主  演 彼得·威勒 Peter Weller
      南茜·艾伦 Nancy Allen
      丹·奥赫里奇 Dan O'Herlihy
      罗尼·考克斯 Ronny Cox
      柯特伍德·史密斯 Kurtwood Smith


简  介


  底特律是世界闻名的汽车城,这里的机械工业已经到了出神入化的地步。墨菲(彼得•威勒 Peter Weller 饰)是底特律的一个普通警察,既没有非凡身手、也没有高超技术。一次,他执行任务时被一伙暴徒暴打致死,从此他的人生轨迹改变了。
  底特律的科学家没能救活他的身体,却能将他的头脑和机械完美地合二为一。墨菲成了一个有着人类头脑和机械身体的机械警察!身上配备了各种武器、能应付各种各样的暴力活动的墨菲成了底特律警察的王牌。然而墨菲发生意外后他的家人却神秘失踪了,墨菲打击罪恶之余一直在竭力寻找家人。
  令人意外的是,墨菲的机械身体却是操控在一伙利益集团手中。他们一直都在利用墨菲干着各种罪恶勾当……


获奖情况


  第60届奥斯卡金像奖 (1988)
  最佳剪辑(提名) Frank J. Urioste
  最佳音响(提名) Aaron Rochin / Michael J. Kohut / Robert Wald / Carlos Delarios
  特别成就奖 Stephen Hunter Flick / John Pospisil




Video
ID                                       : 1
Format                                   : AVC
Format/Info                              : Advanced Video Codec
Format profile                           : [email protected]
Format settings, CABAC                   : Yes
Format settings, ReFrames                : 4 frames
Codec ID                                 : V_MPEG4/ISO/AVC
Duration                                 : 1h 43mn
Bit rate                                 : 13.6 Mbps
Width                                    : 1 920 pixels
Height                                   : 1 040 pixels
Display aspect ratio                     : 1.85:1
Frame rate mode                          : Constant
Frame rate                               : 23.976 fps
Color space                              : YUV
Chroma subsampling                       : 4:2:0
Bit depth                                : 8 bits
Scan type                                : Progressive
Bits/(Pixel*Frame)                       : 0.285
Stream size                              : 9.61 GiB (88%)
Writing library                          : x264 core 140 r2377 1ca7bb9
Encoding settings                        : cabac=1 / ref=4 / deblock=1:-3:-3 / analyse=0x3:0x133 / me=umh / subme=10 / psy=1 / psy_rd=1.20:0.00 / mixed_ref=1 / me_range=32 / chroma_me=1 / trellis=2 / 8x8dct=1 / cqm=0 / deadzone=21,11 / fast_pskip=1 / chroma_qp_offset=-2 / threads=18 / lookahead_threads=3 / sliced_threads=0 / nr=0 / decimate=1 / interlaced=0 / bluray_compat=0 / constrained_intra=0 / bframes=8 / b_pyramid=2 / b_adapt=2 / b_bias=0 / direct=3 / weightb=1 / open_gop=0 / weightp=2 / keyint=240 / keyint_min=24 / scenecut=40 / intra_refresh=0 / rc=2pass / mbtree=0 / bitrate=13640 / ratetol=1.0 / qcomp=0.60 / qpmin=0 / qpmax=69 / qpstep=4 / cplxblur=20.0 / qblur=0.5 / ip_ratio=1.40 / pb_ratio=1.30 / aq=1:0.80
Language                                 : English
Default                                  : Yes
Forced                                   : No

Audio
ID                                       : 2
Format                                   : DTS
Format/Info                              : Digital Theater Systems
Mode                                     : 16
Format settings, Endianness              : Big
Codec ID                                 : A_DTS
Duration                                 : 1h 43mn
Bit rate mode                            : Constant
Bit rate                                 : 1 509 Kbps
Channel(s)                               : 6 channels
Channel positions                        : Front: L C R, Side: L R, LFE
Sampling rate                            : 48.0 KHz
Bit depth                                : 24 bits
Compression mode                         : Lossy
Stream size                              : 1.09 GiB (10%)
Language                                 : English
Default                                  : Yes
Forced                                   : No

Text #1
ID                                       : 3
Format                                   : UTF-8
Codec ID                                 : S_TEXT/UTF8
Codec ID/Info                            : UTF-8 Plain Text
Title                                    : SDH
Language                                 : English
Default                                  : No
Forced                                   : No

Text #2
ID                                       : 4
Format                                   : UTF-8
Codec ID                                 : S_TEXT/UTF8
Codec ID/Info                            : UTF-8 Plain Text
Language                                 : English
Default                                  : No
Forced                                   : No

Menu
00:00:00.000                             : en:00:00:00.000
00:06:45.113                             : en:00:06:45.113
00:14:07.555                             : en:00:14:07.555
00:17:32.551                             : en:00:17:32.551
00:26:40.516                             : en:00:26:40.516
00:34:28.024                             : en:00:34:28.024
00:40:32.805                             : en:00:40:32.805
00:45:15.338                             : en:00:45:15.338
00:49:46.650                             : en:00:49:46.650
00:57:48.131                             : en:00:57:48.131
01:01:41.239                             : en:01:01:41.239
01:08:25.184                             : en:01:08:25.184
01:15:59.889                             : en:01:15:59.889
01:22:46.545                             : en:01:22:46.545
01:33:53.962                             : en:01:33:53.962
01:37:04.902                             : en:01:37:04.902






                                                                                                                                                                                                       

                                                                                                                       
                                                                                                                                                                                                                                                        RoboCop.1987.REMASTERED.DC.1080p.BluRay.X264-AMIABLE.torrent (55.22 KB, 下载次数: 0)

回复

使用道具 举报

小黑屋|百度云资源论坛 |网站地图

本网站所有资源来自网络,如无意中侵犯了您的权益,请发邮件至 [email protected],立即清除相关链接

GMT+8, 2020-9-20 05:46 , Processed in 0.104513 second(s), 23 queries .

Powered by Discuz! X3.2

© 2001-2013 Comsenz Inc.

快速回复 返回顶部 返回列表