百度云资源论坛

 找回密码
 立即注册
搜索

[动作片] 机器战警2/机械战警2 RoboCop.2.1990.1080p.BluRay.x264-LEVERAGE 8.74GB

[复制链接]
电影首发 发表于 2015-11-14 09:04:00 | 显示全部楼层 |阅读模式

译  名 机器战警2/机械战警2/铁甲威龙2
片  名 Robocop 2
年  代 1990
国  家 美国
类  别 动作/犯罪/科幻/惊悚
语  言 英语
上映日期 1990-06-22
片  长 Germany: 82 分钟(FSK 16 version)/USA: 117 分钟
导  演 厄文·克什纳 Irvin Kershner
主  演 彼得·威勒 Peter Weller
      南茜·艾伦 Nancy Allen
      Gabriel Damon
      Leeza Gibbons


简  介


  在这部续集中,生产机械战警的泛消费公司掌控着底特律城的治安,警察们因薪水迟迟不能到位而举行罢工。凯恩(Tom Noonan 饰)旗下的犯罪集团依靠制造风靡各地的毒品“纽克”大发横财,社会治安极度败坏,到处是暴力事件。机械警察墨菲(Peter Weller 饰)追查毒品,将凯恩的制毒工厂捣毁,由此被凯恩团伙埋伏,惨遭肢解。与此同时,泛消费公司趁市政府财务困难,凭合同欲将城市行政纳入公司范畴,泛消费的新机械战警开发计划屡屡失败,于是请到心理学家菲克斯参与设计,菲克斯改动墨菲的命令程序使其无法如常工作,从错误程序摆脱出来的墨菲带领一干热血干警横扫凯恩总部,但是菲克斯却将凯恩改造成为巨大的机械战警,墨菲与凯恩的再次战斗不可避免……


Video
ID                                       : 1
Format                                   : AVC
Format/Info                              : Advanced Video Codec
Format profile                           : [email protected]
Format settings, CABAC                   : Yes
Format settings, ReFrames                : 4 frames
Codec ID                                 : V_MPEG4/ISO/AVC
Duration                                 : 1h 56mn
Bit rate                                 : 9 224 Kbps
Width                                    : 1 920 pixels
Height                                   : 1 040 pixels
Display aspect ratio                     : 1.85:1
Frame rate mode                          : Constant
Frame rate                               : 23.976 fps
Color space                              : YUV
Chroma subsampling                       : 4:2:0
Bit depth                                : 8 bits
Scan type                                : Progressive
Bits/(Pixel*Frame)                       : 0.193
Stream size                              : 7.34 GiB (84%)
Writing library                          : x264 core 104 r1713 c276662
Encoding settings                        : cabac=1 / ref=4 / deblock=1:0:0 / analyse=0x3:0x2 / me=umh / subme=7 / psy=1 / psy_rd=1.00:0.00 / mixed_ref=1 / me_range=16 / chroma_me=1 / trellis=1 / 8x8dct=1 / cqm=0 / deadzone=21,11 / fast_pskip=1 / chroma_qp_offset=-2 / threads=8 / sliced_threads=0 / nr=0 / decimate=1 / interlaced=0 / constrained_intra=0 / bframes=3 / b_pyramid=2 / b_adapt=1 / b_bias=0 / direct=1 / weightb=0 / open_gop=0 / weightp=2 / keyint=250 / keyint_min=23 / scenecut=40 / intra_refresh=0 / rc=2pass / mbtree=0 / bitrate=9224 / ratetol=1.0 / qcomp=0.60 / qpmin=10 / qpmax=51 / qpstep=4 / cplxblur=20.0 / qblur=0.5 / ip_ratio=1.40 / pb_ratio=1.30 / aq=1:1.00
Language                                 : English
Default                                  : Yes
Forced                                   : No

Audio
ID                                       : 2
Format                                   : DTS
Format/Info                              : Digital Theater Systems
Mode                                     : 16
Format settings, Endianness              : Big
Codec ID                                 : A_DTS
Duration                                 : 1h 56mn
Bit rate mode                            : Constant
Bit rate                                 : 1 509 Kbps
Channel(s)                               : 6 channels
Channel positions                        : Front: L C R, Side: L R, LFE
Sampling rate                            : 48.0 KHz
Bit depth                                : 24 bits
Compression mode                         : Lossy
Stream size                              : 1.23 GiB (14%)
Language                                 : English
Default                                  : Yes
Forced                                   : No

Text
ID                                       : 3
Format                                   : UTF-8
Codec ID                                 : S_TEXT/UTF8
Codec ID/Info                            : UTF-8 Plain Text
Language                                 : English
Default                                  : Yes
Forced                                   : No





                                                                                                                                                                                                       

                                                                                                                       
                                                                                                                                                                                                                                                        RoboCop.2.1990.1080p.BluRay.x264-LEVERAGE.torrent (88.02 KB, 下载次数: 0)

回复

使用道具 举报

小黑屋|百度云资源论坛 |网站地图

本网站所有资源来自网络,如无意中侵犯了您的权益,请发邮件至 [email protected],立即清除相关链接

GMT+8, 2020-9-20 01:41 , Processed in 0.095755 second(s), 23 queries .

Powered by Discuz! X3.2

© 2001-2013 Comsenz Inc.

快速回复 返回顶部 返回列表