百度云资源论坛

 找回密码
 立即注册
搜索

[动作片] 蝎子王/魔蝎大帝 Scorpion.King.2002.1080p.BluRay.x264-SECTOR7 7.95GB

[复制链接]
电影首发 发表于 2015-11-14 09:04:00 | 显示全部楼层 |阅读模式

译  名 蝎子王/魔蝎大帝/蝎子王传奇盗墓迷城外传
片  名 The Scorpion King
年  代 2002
国  家 德国/美国/比利时
类  别 动作/惊悚/奇幻/冒险
语  言 英语
上映日期 2002-04-19(美国)
片  长 92 分钟
导  演 查克·拉塞尔 Chuck Russell
主  演 道恩·强森 Dwayne Johnson
      史蒂文·布兰德 Steven Brand
      迈克·克拉克·邓肯 Michael Clarke Duncan
      胡凯莉 Kelly Hu
      伯纳德·希尔 Bernard Hill


简  介


  在5000年前的古埃及,俄摩拉城因其城主曼侬(史蒂文·布兰德 Steven Brand 饰)手握重兵,并且统治非常残暴,使其称霸一方。为了反抗他的统治,领地里的其他部落组成联盟向其发动了多场战争。但是结果都是大败而归。原来,在曼侬身边有一位精通巫术 的神秘人物,她能预知未来,遇见部落联盟的战术安排,由此帮助曼侬百战百胜。在知晓这一情况后,部落联盟决定派出一位刺客先把这个神秘人物除掉。但是当刺客摩挲尤斯(道恩·强森 Dwayne Johnson 饰)深入城内准备暗杀那个神秘人物时,却发现这是一位漂亮的女人(胡凯莉 Kelly Hu 饰),而且是因为受到曼侬的威胁才被逼帮助曼侬。最终,他们的目标从这位神秘人物身上转到了直接刺杀曼侬,一场生死大战就此展开……




Video
ID                                       : 1
Format                                   : AVC
Format/Info                              : Advanced Video Codec
Format profile                           : [email protected]
Format settings, CABAC                   : Yes
Format settings, ReFrames                : 5 frames
Codec ID                                 : V_MPEG4/ISO/AVC
Duration                                 : 1h 31mn
Bit rate                                 : 10.9 Mbps
Width                                    : 1 920 pixels
Height                                   : 816 pixels
Display aspect ratio                     : 2.35:1
Frame rate mode                          : Constant
Frame rate                               : 23.976 fps
Color space                              : YUV
Chroma subsampling                       : 4:2:0
Bit depth                                : 8 bits
Scan type                                : Progressive
Bits/(Pixel*Frame)                       : 0.291
Stream size                              : 6.82 GiB (86%)
Writing library                          : x264 core 60 r901M 58d7d06
Encoding settings                        : cabac=1 / ref=5 / deblock=1:-1:-1 / analyse=0x3:0x133 / me=umh / subme=6 / rdcmp=psy / brdo=1 / mixed_ref=1 / me_range=16 / chroma_me=1 / trellis=1 / 8x8dct=1 / cqm=1 / deadzone=21,11 / chroma_qp_offset=0 / threads=8 / nr=0 / decimate=1 / mbaff=0 / bframes=3 / b_pyramid=1 / b_adapt=1 / b_bias=0 / direct=3 / wpredb=1 / bime=1 / keyint=240 / keyint_min=24 / scenecut=40(pre) / rc=2pass / bitrate=10923 / ratetol=1.0 / rceq=\'blurCplx^(1-qComp)\' / qcomp=1.00 / qpmin=10 / qpmax=51 / qpstep=4 / cplxblur=20.0 / qblur=0.5 / ip_ratio=1.40 / pb_ratio=1.30 / aq=2:1.00
Language                                 : English
Default                                  : Yes
Forced                                   : No

Audio
ID                                       : 2
Format                                   : DTS
Format/Info                              : Digital Theater Systems
Mode                                     : 16
Format settings, Endianness              : Big
Codec ID                                 : A_DTS
Duration                                 : 1h 31mn
Bit rate mode                            : Constant
Bit rate                                 : 1 509 Kbps
Channel(s)                               : 6 channels
Channel positions                        : Front: L C R, Side: L R, LFE
Sampling rate                            : 48.0 KHz
Bit depth                                : 24 bits
Compression mode                         : Lossy
Stream size                              : 987 MiB (12%)
Default                                  : Yes
Forced                                   : No





                                                                                                                                                                                                       

                                                                                                                       
                                                                                                                                                                                                                                                        Scorpion.King.2002.1080p.BluRay.x264-SECTOR7.torrent (80.03 KB, 下载次数: 0)

回复

使用道具 举报

小黑屋|百度云资源论坛 |网站地图

本网站所有资源来自网络,如无意中侵犯了您的权益,请发邮件至 [email protected],立即清除相关链接

GMT+8, 2020-11-24 02:47 , Processed in 0.113937 second(s), 23 queries .

Powered by Discuz! X3.2

© 2001-2013 Comsenz Inc.

快速回复 返回顶部 返回列表