百度云资源论坛

 找回密码
 立即注册
搜索

精灵鼠小弟2/一家之鼠2 Stuart.Little.2.2002.1080p.BluRay.x264-Japhson 5.45GB ... ...

[复制链接]
电影首发 发表于 2015-11-14 09:04:00 | 显示全部楼层 |阅读模式

译  名 精灵鼠小弟2/一家之鼠2/一家之鼠超力仔2
片  名 Stuart Little 2
年  代 2002
国  家 美国
类  别 喜剧/家庭/奇幻/冒险
语  言 英语
上映日期 2002-07-14(美国)
片  长 77 分钟(美国)/82 分钟(西班牙)
导  演 罗伯·明可夫 Rob Minkoff
主  演 迈克尔·J·福克斯 Michael J. Fox
      吉娜·戴维斯 Geena Davis
      休·劳瑞 Hugh Laurie
      詹姆斯·伍兹 James Woods
      史蒂夫·茨恩 Steve Zahn


简  介


  经过了两年的共同生活,如今斯图亚特和乔治一家过得融洽和睦,斯图亚特还是一如既往的聪明精灵,然而内心却为了一件事有点不安——乔治母亲添了小女儿,他们对这个千金宠爱有加,几乎花掉全部时间精力。而乔治功课也日渐繁忙,陪伴斯图亚特的时间也少了。斯图亚特有点落寞,直到它遇上了鸽子玛格罗。
  斯图亚特上演了一幕英雄救美,把玛格罗从危难中解救出来,并带她回家疗伤,心里对她暗暗倾慕。然而斯图亚特的恋爱并不是特别顺利,他不知道玛格罗有着不为人知的秘密,这只机智勇敢的小白鼠面临着又一次充满挑战的冒险。




Video
ID                                       : 1
Format                                   : AVC
Format/Info                              : Advanced Video Codec
Format profile                           : [email protected]
Format settings, CABAC                   : Yes
Format settings, ReFrames                : 4 frames
Muxing mode                              : Header stripping
Codec ID                                 : V_MPEG4/ISO/AVC
Duration                                 : 1h 17mn
Bit rate                                 : 8 543 Kbps
Width                                    : 1 920 pixels
Height                                   : 1 040 pixels
Display aspect ratio                     : 1.85:1
Frame rate mode                          : Constant
Frame rate                               : 23.976 fps
Color space                              : YUV
Chroma subsampling                       : 4:2:0
Bit depth                                : 8 bits
Scan type                                : Progressive
Bits/(Pixel*Frame)                       : 0.178
Stream size                              : 4.52 GiB (83%)
Writing library                          : x264 core 115 r2008 4c552d8
Encoding settings                        : cabac=1 / ref=4 / deblock=1:-1:-1 / analyse=0x3:0x113 / me=umh / subme=7 / psy=1 / psy_rd=1.00:0.00 / mixed_ref=1 / me_range=16 / chroma_me=1 / trellis=1 / 8x8dct=1 / cqm=0 / deadzone=21,11 / fast_pskip=1 / chroma_qp_offset=-2 / threads=12 / sliced_threads=0 / nr=0 / decimate=1 / interlaced=0 / bluray_compat=0 / constrained_intra=0 / bframes=3 / b_pyramid=2 / b_adapt=2 / b_bias=0 / direct=3 / weightb=1 / open_gop=0 / weightp=2 / keyint=250 / keyint_min=23 / scenecut=40 / intra_refresh=0 / rc_lookahead=40 / rc=2pass / mbtree=1 / bitrate=8543 / ratetol=1.0 / qcomp=0.60 / qpmin=0 / qpmax=69 / qpstep=4 / cplxblur=20.0 / qblur=0.5 / vbv_maxrate=50000 / vbv_bufsize=50000 / nal_hrd=none / ip_ratio=1.40 / aq=1:1.00
Language                                 : English
Default                                  : Yes
Forced                                   : Yes

Audio
ID                                       : 2
Format                                   : DTS
Format/Info                              : Digital Theater Systems
Mode                                     : 16
Format settings, Endianness              : Big
Muxing mode                              : Header stripping
Codec ID                                 : A_DTS
Duration                                 : 1h 17mn
Bit rate mode                            : Constant
Bit rate                                 : 1 509 Kbps
Channel(s)                               : 6 channels
Channel positions                        : Front: L C R, Side: L R, LFE
Sampling rate                            : 48.0 KHz
Bit depth                                : 24 bits
Compression mode                         : Lossy
Stream size                              : 839 MiB (15%)
Language                                 : English
Default                                  : Yes
Forced                                   : Yes





                                                                                                                                                                                                       

                                                                                                                       
                                                                                                                                                                                                                                                        Stuart.Little.2.2002.1080p.BluRay.x264-Japhson.torrent (55.05 KB, 下载次数: 0)

回复

使用道具 举报

小黑屋|百度云资源论坛 |网站地图

本网站所有资源来自网络,如无意中侵犯了您的权益,请发邮件至 [email protected],立即清除相关链接

GMT+8, 2020-9-21 14:58 , Processed in 0.109453 second(s), 23 queries .

Powered by Discuz! X3.2

© 2001-2013 Comsenz Inc.

快速回复 返回顶部 返回列表