百度云资源论坛

 找回密码
 立即注册
搜索

[冒险片] 精灵鼠小弟/一家之鼠 Stuart.Little.1999.1080p.BluRay.x264-Japhson 6.54GB

[复制链接]
电影首发 发表于 2015-11-14 09:04:00 | 显示全部楼层 |阅读模式

译  名 精灵鼠小弟/一家之鼠超力仔/一家之鼠
片  名 Stuart Little
年  代 1999
国  家 美国/德国
类  别 冒险/喜剧/家庭/奇幻
语  言 英语/荷兰语
上映日期 2000-04-20(德国)/1999-12-05(美国首映)
片  长 84分钟
导  演 罗伯·明可夫 Rob Minkoff
主  演 迈克尔·J·福克斯 Michael J. Fox
      吉娜·戴维斯 Geena Davis
      休·劳瑞 Hugh Laurie
      乔纳森·利普尼基 Jonathan Lipnicki
      内森·连恩 Nathan Lane


简  介


  9岁的乔治这天迎来了一个弟弟——小白鼠斯图亚特。这是他爸爸妈妈从孤儿院领回来的可爱精灵,会说话,有智慧,并且很希望有自己的家。然而,乔治却不喜欢斯图亚特,不愿意和他作伴。斯图亚特为此颇为犯愁。更令它处境不妙的是,它成为了肥猫眼中的佳肴,在虎视眈眈下过着冒险的生活。
  乔治参加了一个航模赛,但是他却一路遭到挫折,先是父亲没能帮他做好模型,当模型好不容易做成了,遥控器却在比赛那天被别人踩坏。在乔治每一次陷入困难的时候,正是斯图亚特机敏勇敢的出手相助,让乔治顺利过关。斯图亚特努力的付出,终于被小乔治接纳,这只小白鼠在乔治家中得到了温暖的归属。


获奖情况


  第72届奥斯卡金像奖 (2000)
  最佳视觉效果(提名) John Dykstra / Jerome Chen / Henry F. Anderson III / Eric Allard




Video
ID                                       : 1
Format                                   : AVC
Format/Info                              : Advanced Video Codec
Format profile                           : [email protected]
Format settings, CABAC                   : Yes
Format settings, ReFrames                : 4 frames
Muxing mode                              : Header stripping
Codec ID                                 : V_MPEG4/ISO/AVC
Duration                                 : 1h 24mn
Bit rate                                 : 9 575 Kbps
Width                                    : 1 920 pixels
Height                                   : 1 040 pixels
Display aspect ratio                     : 1.85:1
Frame rate mode                          : Constant
Frame rate                               : 23.976 fps
Color space                              : YUV
Chroma subsampling                       : 4:2:0
Bit depth                                : 8 bits
Scan type                                : Progressive
Bits/(Pixel*Frame)                       : 0.200
Stream size                              : 5.52 GiB (84%)
Writing library                          : x264 core 115 r1995 c1e60b9
Encoding settings                        : cabac=1 / ref=4 / deblock=1:-1:-1 / analyse=0x3:0x113 / me=umh / subme=7 / psy=1 / psy_rd=1.00:0.00 / mixed_ref=1 / me_range=16 / chroma_me=1 / trellis=1 / 8x8dct=1 / cqm=0 / deadzone=21,11 / fast_pskip=1 / chroma_qp_offset=-2 / threads=12 / sliced_threads=0 / nr=0 / decimate=1 / interlaced=0 / bluray_compat=0 / constrained_intra=0 / bframes=3 / b_pyramid=2 / b_adapt=2 / b_bias=0 / direct=3 / weightb=1 / open_gop=0 / weightp=2 / keyint=250 / keyint_min=23 / scenecut=40 / intra_refresh=0 / rc_lookahead=40 / rc=2pass / mbtree=1 / bitrate=9575 / ratetol=1.0 / qcomp=0.60 / qpmin=0 / qpmax=69 / qpstep=4 / cplxblur=20.0 / qblur=0.5 / vbv_maxrate=50000 / vbv_bufsize=50000 / nal_hrd=none / ip_ratio=1.40 / aq=1:1.00
Language                                 : English
Default                                  : Yes
Forced                                   : Yes

Audio
ID                                       : 2
Format                                   : DTS
Format/Info                              : Digital Theater Systems
Mode                                     : 16
Format settings, Endianness              : Big
Muxing mode                              : Header stripping
Codec ID                                 : A_DTS
Duration                                 : 1h 24mn
Bit rate mode                            : Constant
Bit rate                                 : 1 509 Kbps
Channel(s)                               : 6 channels
Channel positions                        : Front: L C R, Side: L R, LFE
Sampling rate                            : 48.0 KHz
Bit depth                                : 24 bits
Compression mode                         : Lossy
Stream size                              : 913 MiB (14%)
Language                                 : English
Default                                  : Yes
Forced                                   : Yes

Text
ID                                       : 3
Format                                   : UTF-8
Codec ID                                 : S_TEXT/UTF8
Codec ID/Info                            : UTF-8 Plain Text
Language                                 : English
Default                                  : Yes
Forced                                   : No






                                                                                                                                                                                                       

                                                                                                                       
                                                                                                                                                                                                                                                        Stuart.Little.1999.1080p.BluRay.x264-Japhson.torrent (65.98 KB, 下载次数: 0)

回复

使用道具 举报

小黑屋|百度云资源论坛 |网站地图

本网站所有资源来自网络,如无意中侵犯了您的权益,请发邮件至 [email protected],立即清除相关链接

GMT+8, 2020-7-9 12:36 , Processed in 0.105422 second(s), 23 queries .

Powered by Discuz! X3.2

© 2001-2013 Comsenz Inc.

快速回复 返回顶部 返回列表