百度云资源论坛

 找回密码
 立即注册
搜索

[动作片] 机器战警3/机械战警3 RoboCop.3.1993.1080p.BluRay.x264-LCHD 7.94GB

[复制链接]
电影首发 发表于 2015-11-14 08:50:00 | 显示全部楼层 |阅读模式

译  名 机器战警3/机械战警3/铁甲威龙 3
片  名 RoboCop 3
年  代 1993
国  家 美国
类  别 动作/犯罪/剧情/科幻/惊悚
语  言 英语/日语
上映日期 1993-11-05
IMDb评分  3.9/10 from 32,785 users
片  长 104 分钟
导  演 弗莱德·戴克尔 Fred Dekker
主  演 罗伯特·约翰·伯克 Robert John Burke
      南茜·艾伦 Nancy Allen
      Mario Machado
      雷普·汤恩 Rip Torn


简  介


  泛消费公司已完全掌控了底特律市之后,与日本金光财团合作组建OCP,在底特律开发三角洲城,并招揽雇佣兵组成暴力改建队,驱逐居民,相当数量的拆迁地居民为捍卫家园组成武装力量反抗财阀的不义计划,女童妮科(Remy Ryan Hernandez 饰)凭借高超的电脑技术在反抗军中表现抢眼。机器战警墨菲(Robert John Burke 饰)与老搭档路易斯执行任务期间偶然发现了居民们的藏身地点,出于正义感,墨菲同随后赶到的改建队交火,机体损坏严重,路易斯不幸身亡,墨菲决定加入反抗军。同时日本方面为执行拆迁计划派出特工忍者雄志,改建队头目亦利用反抗军中的叛徒查到了反抗总部。在妮科的帮助下,墨菲被拉瑟斯博士整修完备,汇同不齿改建队暴力行径而选择站到居民一边的底特律警察们,同雄志、改建队展开最后决战。




Video
ID                                       : 1
Format                                   : AVC
Format/Info                              : Advanced Video Codec
Format profile                           : [email protected]
Format settings, CABAC                   : Yes
Format settings, ReFrames                : 4 frames
Codec ID                                 : V_MPEG4/ISO/AVC
Duration                                 : 1h 44mn
Bit rate                                 : 9 337 Kbps
Width                                    : 1 920 pixels
Height                                   : 1 040 pixels
Display aspect ratio                     : 1.85:1
Frame rate mode                          : Constant
Frame rate                               : 23.976 fps
Color space                              : YUV
Chroma subsampling                       : 4:2:0
Bit depth                                : 8 bits
Scan type                                : Progressive
Bits/(Pixel*Frame)                       : 0.195
Stream size                              : 6.68 GiB (84%)
Writing library                          : x264 core 104 r1713 c276662
Encoding settings                        : cabac=1 / ref=4 / deblock=1:-1:-1 / analyse=0x3:0x113 / me=umh / subme=7 / psy=1 / psy_rd=1.00:0.00 / mixed_ref=1 / me_range=16 / chroma_me=1 / trellis=1 / 8x8dct=1 / cqm=0 / deadzone=21,11 / fast_pskip=1 / chroma_qp_offset=-2 / threads=12 / sliced_threads=0 / nr=0 / decimate=1 / interlaced=0 / constrained_intra=0 / bframes=3 / b_pyramid=2 / b_adapt=2 / b_bias=0 / direct=3 / weightb=1 / open_gop=0 / weightp=2 / keyint=250 / keyint_min=23 / scenecut=40 / intra_refresh=0 / rc_lookahead=40 / rc=2pass / mbtree=1 / bitrate=9337 / ratetol=1.0 / qcomp=0.60 / qpmin=10 / qpmax=51 / qpstep=4 / cplxblur=20.0 / qblur=0.5 / vbv_maxrate=50000 / vbv_bufsize=50000 / ip_ratio=1.40 / aq=1:1.00 / nal_hrd=none
Language                                 : English
Default                                  : Yes
Forced                                   : Yes

Audio
ID                                       : 2
Format                                   : DTS
Format/Info                              : Digital Theater Systems
Mode                                     : 16
Format settings, Endianness              : Big
Codec ID                                 : A_DTS
Duration                                 : 1h 44mn
Bit rate mode                            : Constant
Bit rate                                 : 1 509 Kbps
Channel(s)                               : 6 channels
Channel positions                        : Front: L C R, Side: L R, LFE
Sampling rate                            : 48.0 KHz
Bit depth                                : 24 bits
Compression mode                         : Lossy
Stream size                              : 1.10 GiB (14%)
Language                                 : English
Default                                  : Yes
Forced                                   : Yes

Text
ID                                       : 3
Format                                   : UTF-8
Codec ID                                 : S_TEXT/UTF8
Codec ID/Info                            : UTF-8 Plain Text
Language                                 : English
Default                                  : Yes
Forced                                   : No






                                                                                                                                                                                                       

                                                                                                                       
                                                                                                                                                                                                                                                        RoboCop.3.1993.1080p.BluRay.x264-LCHD.torrent (79.92 KB, 下载次数: 0)

回复

使用道具 举报

小黑屋|百度云资源论坛 |网站地图

本网站所有资源来自网络,如无意中侵犯了您的权益,请发邮件至 [email protected],立即清除相关链接

GMT+8, 2020-9-20 01:38 , Processed in 0.116356 second(s), 23 queries .

Powered by Discuz! X3.2

© 2001-2013 Comsenz Inc.

快速回复 返回顶部 返回列表