百度云资源论坛

 找回密码
 立即注册
搜索

[剧情片] 最后救援/最后一个救援 The.Last.Rescue.2015.1080p.BluRay.x264.DTS-FGT 4.18GB ... ...

[复制链接]
电影首发 发表于 2015-11-14 08:50:00 | 显示全部楼层 |阅读模式

译  名 最后救援/最后一个救援
片  名 the last rescue
年  代 2015
国  家 美国
类  别 剧情/动作/战争
语  言 英语
上映日期 2015-06-01(英国)
片  长 107(英国)
导  演 Eric Colley
主  演 布雷特·道顿 Brett Dalton
      科迪Kasch
      吉勒·马里尼 Gilles Marini
      凯斯·梅里曼 Keith Merryman


简  介


  A World War II story from Puget Sound filmmakers: Shortly after D-Day, three American soldiers and two Army Corps nurses are stranded behind enemy lines. They take a high-ranking German officer as their prisoner and try to orchestrate an escape. by  
http://www.btshoufa.com/


Video
ID                                       : 1
Format                                   : AVC
Format/Info                              : Advanced Video Codec
Format profile                           : [email protected]
Format settings, CABAC                   : Yes
Format settings, ReFrames                : 4 frames
Codec ID                                 : V_MPEG4/ISO/AVC
Duration                                 : 1h 46mn
Bit rate                                 : 4 755 Kbps
Width                                    : 1 920 pixels
Height                                   : 1 072 pixels
Display aspect ratio                     : 16:9
Frame rate mode                          : Constant
Frame rate                               : 23.976 fps
Color space                              : YUV
Chroma subsampling                       : 4:2:0
Bit depth                                : 8 bits
Scan type                                : Progressive
Bits/(Pixel*Frame)                       : 0.096
Stream size                              : 3.53 GiB (84%)
Writing library                          : x264 core 148 r2638 7599210
Encoding settings                        : cabac=1 / ref=4 / deblock=1:-1:-1 / analyse=0x3:0x133 / me=umh / subme=7 / psy=1 / psy_rd=1.00:0.15 / mixed_ref=1 / me_range=16 / chroma_me=1 / trellis=1 / 8x8dct=1 / cqm=0 / deadzone=21,11 / fast_pskip=0 / chroma_qp_offset=-3 / threads=8 / lookahead_threads=1 / sliced_threads=0 / nr=0 / decimate=1 / interlaced=0 / bluray_compat=0 / constrained_intra=0 / bframes=3 / b_pyramid=2 / b_adapt=1 / b_bias=0 / direct=1 / weightb=1 / open_gop=0 / weightp=2 / keyint=250 / keyint_min=23 / scenecut=40 / intra_refresh=0 / rc_lookahead=40 / rc=crf / mbtree=1 / crf=20.0 / qcomp=0.60 / qpmin=0 / qpmax=69 / qpstep=4 / ip_ratio=1.40 / aq=1:1.00
Language                                 : English
Default                                  : Yes
Forced                                   : No

Audio
ID                                       : 2
Format                                   : DTS
Format/Info                              : Digital Theater Systems
Mode                                     : 16
Format settings, Endianness              : Big
Codec ID                                 : A_DTS
Duration                                 : 1h 46mn
Bit rate mode                            : Constant
Bit rate                                 : 768 Kbps
Channel(s)                               : 2 channels
Channel positions                        : Front: L R
Sampling rate                            : 48.0 KHz
Bit depth                                : 16 bits
Compression mode                         : Lossy
Stream size                              : 584 MiB (14%)
Language                                 : English
Default                                  : Yes
Forced                                   : No

Menu
00:00:00.000                             : en:00:00:00.000
00:08:39.602                             : en:00:08:39.602
00:17:11.280                             : en:00:17:11.280
00:25:12.511                             : en:00:25:12.511
00:36:56.089                             : en:00:36:56.089
00:42:55.490                             : en:00:42:55.490
00:52:13.964                             : en:00:52:13.964
01:00:40.262                             : en:01:00:40.262
01:11:08.055                             : en:01:11:08.055
01:19:58.836                             : en:01:19:58.836
01:28:21.963                             : en:01:28:21.963
01:37:52.742                             : en:01:37:52.742





                                                                                                                                                                                                       

                                                                                                                       
                                                                                                                                                                                                                                                        The.Last.Rescue.2015.1080p.BluRay.x264.DTS-FGT.torrent (84.3 KB, 下载次数: 0)

回复

使用道具 举报

小黑屋|百度云资源论坛 |网站地图

本网站所有资源来自网络,如无意中侵犯了您的权益,请发邮件至 [email protected],立即清除相关链接

GMT+8, 2020-11-27 13:27 , Processed in 0.097658 second(s), 23 queries .

Powered by Discuz! X3.2

© 2001-2013 Comsenz Inc.

快速回复 返回顶部 返回列表