百度云资源论坛

 找回密码
 立即注册
搜索

[动画片] 超级无敌掌门狗:月球野餐记/酷狗宝贝1:月球野餐记 1989.1080p.BluRay.x264-CiNEFiLE 1 ...

[复制链接]
电影首发 发表于 2015-11-14 08:57:00 | 显示全部楼层 |阅读模式

译  名 超级无敌掌门狗:月球野餐记/酷狗宝贝1:月球野餐记/超级无敌掌门狗之月球旅行记/华莱士与葛罗米特:月球旅行记/登月望远
片  名 Wallace & Gromit: A Grand Day Out
年  代 1989
国  家 英国
类  别 动画/短片/冒险/喜剧/家庭
语  言 英语
上映日期 1989(英国短片电影节)/1990-12-24(英国)
片  长 23分钟
导  演 尼克·帕克 Nick Park
主  演 彼得·萨利斯 Peter Sallis


简  介


  对于喜爱奶酪的华莱士(皮特·塞利斯 Peter Sallis 配音)和阿高来说,没有奶酪的日子简直难以想象。这次,我们的天才华莱士竟然认定奶黄色的月亮上有取之不尽用之不竭各种口味的奶酪,于是找来材料和工具,开始制作宇宙飞船。费了九牛二虎之力,宇宙飞船终于轰鸣着飞往月球。在月球上,奶酪真的随处都是,华莱士挑剔地寻找着最爱的口味,期间意外遇到一台投币机器人。谁知机器人并不喜欢外来者掠夺月球奶酪的行为,他想方设法出去华莱士一行。而贪吃华莱士全然不知危险正向他靠近……
  本片荣获1990年英国电影学院奖最佳动画片奖。


获奖情况


  第63届奥斯卡金像奖 (1991)
  最佳动画短片(提名) 尼克·帕克




Video
ID                                       : 1
Format                                   : AVC
Format/Info                              : Advanced Video Codec
Format profile                           : [email protected]
Format settings, CABAC                   : Yes
Format settings, ReFrames                : 5 frames
Codec ID                                 : V_MPEG4/ISO/AVC
Duration                                 : 23mn 57s
Bit rate                                 : 8 068 Kbps
Width                                    : 1 440 pixels
Height                                   : 1 080 pixels
Display aspect ratio                     : 4:3
Frame rate mode                          : Constant
Frame rate                               : 24.000 fps
Color space                              : YUV
Chroma subsampling                       : 4:2:0
Bit depth                                : 8 bits
Scan type                                : Progressive
Bits/(Pixel*Frame)                       : 0.216
Stream size                              : 1.32 GiB (91%)
Writing library                          : x264 core 75 r1259 dd026f2
Encoding settings                        : cabac=1 / ref=5 / deblock=1:0:0 / analyse=0x3:0x113 / me=umh / subme=7 / psy=1 / psy_rd=1.0:0.0 / mixed_ref=1 / me_range=16 / chroma_me=1 / trellis=1 / 8x8dct=1 / cqm=0 / deadzone=21,11 / chroma_qp_offset=-2 / threads=12 / nr=0 / decimate=1 / mbaff=0 / bframes=3 / b_pyramid=0 / b_adapt=1 / b_bias=0 / direct=1 / wpredb=1 / keyint=250 / keyint_min=25 / scenecut=40 / rc_lookahead=40 / rc=2pass / mbtree=1 / bitrate=8068 / ratetol=1.0 / qcomp=0.60 / qpmin=10 / qpmax=51 / qpstep=4 / cplxblur=20.0 / qblur=0.5 / ip_ratio=1.40 / aq=1:1.00
Language                                 : English
Default                                  : No
Forced                                   : No

Audio
ID                                       : 2
Format                                   : AC-3
Format/Info                              : Audio Coding 3
Mode extension                           : CM (complete main)
Format settings, Endianness              : Big
Codec ID                                 : A_AC3
Duration                                 : 23mn 57s
Bit rate mode                            : Constant
Bit rate                                 : 640 Kbps
Channel(s)                               : 6 channels
Channel positions                        : Front: L C R, Side: L R, LFE
Sampling rate                            : 48.0 KHz
Compression mode                         : Lossy
Stream size                              : 110 MiB (7%)
Default                                  : Yes
Forced                                   : No

Text
ID                                       : 3
Format                                   : UTF-8
Codec ID                                 : S_TEXT/UTF8
Codec ID/Info                            : UTF-8 Plain Text
Language                                 : English
Default                                  : No
Forced                                   : No




                                                                                                                                                                                                       

                                                                                                                       
                                                                                                                                                                                                                                                        A.Grand.Day.Out.With.Wallace.And.Gromit.1989.1080p.BluRay.x264-CiNEFiLE.torrent (29.81 KB, 下载次数: 0)

回复

使用道具 举报

小黑屋|百度云资源论坛 |网站地图

本网站所有资源来自网络,如无意中侵犯了您的权益,请发邮件至 [email protected],立即清除相关链接

GMT+8, 2020-9-21 13:26 , Processed in 0.105579 second(s), 23 queries .

Powered by Discuz! X3.2

© 2001-2013 Comsenz Inc.

快速回复 返回顶部 返回列表