百度云资源论坛

 找回密码
 立即注册
搜索

电话谋杀案/电话情杀案 Dial.M.for.Murder.1954.1080p.BluRay.X264-AMIABLE 7.65GB .. ...

[复制链接]
电影首发 发表于 2015-11-14 08:50:00 | 显示全部楼层 |阅读模式

译  名 电话谋杀案/电话情杀案
片  名 Dial M for Murder
年  代 1954
国  家 美国
类  别 犯罪/悬疑/惊悚
语  言 英语
上映日期 1954-05-29(美国)
片  长 105分钟/88分钟(葡萄牙)
导  演 阿尔弗雷德·希区柯克 Alfred Hitchcock
主  演 雷·米兰德 Ray Milland
      格蕾丝·凯利 Grace Kelly
      罗伯特·卡明斯 Robert Cummings
      约翰·威廉姆斯 John Williams
      安东尼·道森 Anthony Dawson
      利奥·布里特 Leo Britt
      帕特里克·艾伦 Patrick Allen
      乔治·利 George Leigh
      罗温·休斯 Robin Hughes


简  介


  汤尼(雷·米兰德 Ray Milland饰)和玛戈(格蕾丝·凯利 Grace Kelly 饰)是貌合神离的一对夫妻。汤尼常常为了他的事业和爱好,把娇妻忘在一边,二人感情亮出红灯。而生活寂寥的玛戈和作家马克不可避免的擦出爱之火花,他们约会、通信,不料竟被汤尼发现。汤尼没有 声张,只是写了一封匿名信给妻子以示警告。然而现在马克竟然造访家中,为了一雪耻辱,加之图谋得到妻子玛戈的丰厚财产,汤尼暗生毒计。 汤尼向旧时同学列斯开出了一千英镑的价钱,让其参与他布下的一整套严密杀人计划。这套计划有设计精妙的凶手不在场证据,电话、钥匙,窗帘,统统成为这个阴谋的道具设置。然而计划终究赶不上变化,列斯不但得不到赏金,还要赔上自己的性命。而汤尼却也急中生了智……




Video
ID                                       : 1
Format                                   : AVC
Format/Info                              : Advanced Video Codec
Format profile                           : [email protected]
Format settings, CABAC                   : Yes
Format settings, ReFrames                : 4 frames
Codec ID                                 : V_MPEG4/ISO/AVC
Duration                                 : 1h 45mn
Bit rate                                 : 9 625 Kbps
Width                                    : 1 920 pixels
Height                                   : 1 080 pixels
Display aspect ratio                     : 16:9
Frame rate mode                          : Constant
Frame rate                               : 23.976 fps
Color space                              : YUV
Chroma subsampling                       : 4:2:0
Bit depth                                : 8 bits
Scan type                                : Progressive
Bits/(Pixel*Frame)                       : 0.194
Stream size                              : 6.94 GiB (91%)
Writing library                          : x264 core 125 r2208 d9d2288
Encoding settings                        : cabac=1 / ref=4 / deblock=1:0:0 / analyse=0x3:0x113 / me=umh / subme=8 / psy=1 / psy_rd=1.00:0.00 / mixed_ref=1 / me_range=16 / chroma_me=1 / trellis=1 / 8x8dct=1 / cqm=0 / deadzone=21,11 / fast_pskip=1 / chroma_qp_offset=-2 / threads=12 / lookahead_threads=2 / sliced_threads=0 / nr=0 / decimate=1 / interlaced=0 / bluray_compat=0 / constrained_intra=0 / bframes=3 / b_pyramid=2 / b_adapt=2 / b_bias=0 / direct=3 / weightb=1 / open_gop=0 / weightp=2 / keyint=240 / keyint_min=24 / scenecut=40 / intra_refresh=0 / rc_lookahead=50 / rc=2pass / mbtree=1 / bitrate=9625 / ratetol=1.0 / qcomp=0.60 / qpmin=0 / qpmax=69 / qpstep=4 / cplxblur=20.0 / qblur=0.5 / ip_ratio=1.40 / aq=1:1.00
Language                                 : English
Default                                  : Yes
Forced                                   : No

Audio
ID                                       : 2
Format                                   : DTS
Format/Info                              : Digital Theater Systems
Mode                                     : 16
Format settings, Endianness              : Big
Codec ID                                 : A_DTS
Duration                                 : 1h 45mn
Bit rate mode                            : Constant
Bit rate                                 : 768 Kbps
Channel(s)                               : 6 channels
Channel(s)_Original                      : 1 channel
Channel positions                        : Front: C
Sampling rate                            : 48.0 KHz
Bit depth                                : 24 bits
Compression mode                         : Lossy
Stream size                              : 579 MiB (7%)
Language                                 : English
Default                                  : Yes
Forced                                   : No

Text
ID                                       : 3
Format                                   : UTF-8
Codec ID                                 : S_TEXT/UTF8
Codec ID/Info                            : UTF-8 Plain Text
Language                                 : English
Default                                  : No
Forced                                   : No

Menu
00:00:00.000                             : en:00:00:00.000
00:01:09.069                             : en:00:01:09.069
00:06:54.331                             : en:00:06:54.331
00:08:49.529                             : en:00:08:49.529
00:10:53.653                             : en:00:10:53.653
00:13:53.708                             : en:00:13:53.708
00:18:51.464                             : en:00:18:51.464
00:24:25.172                             : en:00:24:25.172
00:29:52.958                             : en:00:29:52.958
00:33:10.989                             : en:00:33:10.989
00:39:06.344                             : en:00:39:06.344
00:42:15.950                             : en:00:42:15.950
00:46:44.552                             : en:00:46:44.552
00:50:32.655                             : en:00:50:32.655
00:53:34.211                             : en:00:53:34.211
00:54:21.175                             : en:00:54:21.175
00:59:40.702                             : en:00:59:40.702
01:03:09.953                             : en:01:03:09.953
01:07:11.736                             : en:01:07:11.736
01:12:02.318                             : en:01:12:02.318
01:13:04.880                             : en:01:13:04.880
01:18:43.302                             : en:01:18:43.302
01:21:47.444                             : en:01:21:47.444
01:27:37.836                             : en:01:27:37.836
01:33:26.226                             : en:01:33:26.226
01:36:06.719                             : en:01:36:06.719
01:41:03.349                             : en:01:41:03.349
01:43:52.351                             : en:01:43:52.351





                                                                                                                                                                                                       

                                                                                                                       
                                                                                                                                                                                                                                                        Dial.M.for.Murder.1954.1080p.BluRay.X264-AMIABLE.torrent (77.14 KB, 下载次数: 0)

回复

使用道具 举报

小黑屋|百度云资源论坛 |网站地图

本网站所有资源来自网络,如无意中侵犯了您的权益,请发邮件至 [email protected],立即清除相关链接

GMT+8, 2020-7-3 18:53 , Processed in 0.100034 second(s), 23 queries .

Powered by Discuz! X3.2

© 2001-2013 Comsenz Inc.

快速回复 返回顶部 返回列表