百度云资源论坛

 找回密码
 立即注册
搜索

大巧局/家庭阴谋/奇案 Family.Plot.1976.1080p.BluRay.X264-AMIABLE 8.75GB

[复制链接]
电影首发 发表于 2015-11-14 09:01:00 | 显示全部楼层 |阅读模式

译  名 大巧局/家庭阴谋/奇案
片  名 Family Plot
年  代 1976
国  家 美国
类  别 喜剧/犯罪/惊悚
语  言 英语
上映日期 1976-04-09
IMDb评分  6.8/10 from 14,457 users
IMDb链接  http://www.imdb.com/title/tt0074512/
豆瓣评分 6.9/10 from 937 users
豆瓣链接 http://movie.douban.com/subject/1298371/
片  长 121 分钟
导  演 阿尔弗雷德·希区柯克 Alfred Hitchcock
主  演 凯伦·布莱克 Karen Black
      布鲁斯·邓恩 Bruce Dern
      芭芭拉·哈里斯 Barbara Harris
      威廉姆·德瓦内 William Devane


简  介


  茱莉亚(Cathleen Nesbitt 饰)年事已高,家财万贯,可是没有子嗣,也就没有名正言顺的继承者,为此,她找到了女巫师布兰奇(芭芭拉·哈里斯 Barbara Harris 饰)。茱莉亚告诉布兰奇,她的妹妹曾有一个私生子,被她送给别人抚养,如今,她想找到这个可怜的孩子,让他继承家产。
  就这样,布兰奇和情人乔治(布鲁斯·邓恩 Bruce Dern 饰)一起展开了调查,得知领养茱莉亚外甥的那个家庭全员葬身于大火之中,而放火的不是别人,正是他们想要找的那个人——爱德华(威廉姆·德瓦内 William Devane 饰)。如今的爱德华改名换姓,成为了一位珠宝商,狡猾的他害怕当年的罪行曝光,于是雇佣了当年帮他脱罪的马罗尼(艾德·劳特 Ed Lauter 饰),让他将布兰奇一行人杀死。




Video
ID                                       : 1
Format                                   : AVC
Format/Info                              : Advanced Video Codec
Format profile                           : [email protected]
Format settings, CABAC                   : Yes
Format settings, ReFrames                : 4 frames
Codec ID                                 : V_MPEG4/ISO/AVC
Duration                                 : 2h 0mn
Bit rate                                 : 8 918 Kbps
Width                                    : 1 920 pixels
Height                                   : 1 040 pixels
Display aspect ratio                     : 1.85:1
Frame rate mode                          : Constant
Frame rate                               : 23.976 fps
Color space                              : YUV
Chroma subsampling                       : 4:2:0
Bit depth                                : 8 bits
Scan type                                : Progressive
Bits/(Pixel*Frame)                       : 0.186
Stream size                              : 7.31 GiB (84%)
Writing library                          : x264 core 128 r2216 198a7ea
Encoding settings                        : cabac=1 / ref=4 / deblock=1:0:0 / analyse=0x3:0x113 / me=umh / subme=8 / psy=1 / psy_rd=1.00:0.00 / mixed_ref=1 / me_range=16 / chroma_me=1 / trellis=1 / 8x8dct=1 / cqm=0 / deadzone=21,11 / fast_pskip=1 / chroma_qp_offset=-2 / threads=12 / lookahead_threads=2 / sliced_threads=0 / nr=0 / decimate=1 / interlaced=0 / bluray_compat=0 / constrained_intra=0 / bframes=3 / b_pyramid=2 / b_adapt=2 / b_bias=0 / direct=3 / weightb=1 / open_gop=0 / weightp=2 / keyint=240 / keyint_min=24 / scenecut=40 / intra_refresh=0 / rc_lookahead=50 / rc=2pass / mbtree=1 / bitrate=8918 / ratetol=1.0 / qcomp=0.60 / qpmin=0 / qpmax=69 / qpstep=4 / cplxblur=20.0 / qblur=0.5 / ip_ratio=1.40 / aq=1:1.00
Language                                 : English
Default                                  : Yes
Forced                                   : No

Audio
ID                                       : 2
Format                                   : DTS
Format/Info                              : Digital Theater Systems
Mode                                     : 16
Format settings, Endianness              : Big
Codec ID                                 : A_DTS
Duration                                 : 2h 0mn
Bit rate mode                            : Constant
Bit rate                                 : 1 509 Kbps
Channel(s)                               : 6 channels
Channel(s)_Original                      : 2 channels
Channel positions                        : Front: L R
Sampling rate                            : 48.0 KHz
Bit depth                                : 24 bits
Compression mode                         : Lossy
Stream size                              : 1.27 GiB (14%)
Language                                 : English
Default                                  : Yes
Forced                                   : No

Text
ID                                       : 3
Format                                   : UTF-8
Codec ID                                 : S_TEXT/UTF8
Codec ID/Info                            : UTF-8 Plain Text
Language                                 : English
Default                                  : No
Forced                                   : No

Menu
00:00:00.000                             : en:00:00:00.000
00:10:00.266                             : en:00:10:00.266
00:14:03.718                             : en:00:14:03.718
00:19:57.530                             : en:00:19:57.530
00:30:22.487                             : en:00:30:22.487
00:33:36.056                             : en:00:33:36.056
00:41:30.071                             : en:00:41:30.071
00:46:29.245                             : en:00:46:29.245
00:57:25.984                             : en:00:57:25.984
01:01:03.368                             : en:01:01:03.368
01:07:10.235                             : en:01:07:10.235
01:14:28.714                             : en:01:14:28.714
01:29:11.346                             : en:01:29:11.346
01:37:39.729                             : en:01:37:39.729
01:45:25.778                             : en:01:45:25.778
01:53:51.283                             : en:01:53:51.283
01:56:53.632                             : en:01:56:53.632
01:59:08.892                             : en:01:59:08.892






                                                                                                                                                                                                       

                                                                                                                       
                                                                                                                                                                                                                                                        Family.Plot.1976.1080p.BluRay.X264-AMIABLE.torrent (88.06 KB, 下载次数: 0)

回复

使用道具 举报

小黑屋|百度云资源论坛 |网站地图

本网站所有资源来自网络,如无意中侵犯了您的权益,请发邮件至 [email protected],立即清除相关链接

GMT+8, 2020-7-9 12:31 , Processed in 0.112985 second(s), 23 queries .

Powered by Discuz! X3.2

© 2001-2013 Comsenz Inc.

快速回复 返回顶部 返回列表