百度云资源论坛

 找回密码
 立即注册
搜索

[犯罪片] 亲切的金子/复仇的金子 Lady.Vengeance.2005.1080p.BluRay.x264-SSF 7.94GB

[复制链接]
电影首发 发表于 2015-11-14 09:00:00 | 显示全部楼层 |阅读模式

译  名 亲切的金子/复仇的金子
片  名 친절한 금자씨
年  代 2005
国  家 韩国
类  别 犯罪/剧情/惊悚
语  言 韩语/英语/日语
上映日期 2005-07-29(韩国)
片  长 112 分钟
导  演 朴赞郁 Chan-wook Park
主  演 李英爱 Yeong-ae Lee
      崔岷植 Min-sik Choi
      康赫勇
      吴达洙 Dal-su Oh
      金时厚 Shi-hoo Kim
      金秉玉 Byeong-ok Kim
      崔政宇 Jung-woo Choi


简  介


  金子(李英爱饰)20岁时,就因被控“诱拐儿童”入狱而成为头条新闻,人们惊诧于她的美貌、她的年轻。
  在13年的牢狱生活中,有着天使般容貌的她是狱中绝对的模范。金子尽心尽力地帮助身边的每一个人,因此狱友们都称她为“亲切的金子”。表面上金子似乎比谁都诚实守纪,但内心里的复仇火焰一天也没有熄灭。
  当金子出狱后,她还是马上展开复仇计划——它已经暗中策划准备了13年之久的,而狱友们也都在不同的地方帮助着她。
  金子的仇人是当年让她入狱的白老师(崔岷植饰),那是什么让他们在13年前结怨呢?金子又将怎样复仇呢?能否成功?


获奖情况


  第25届香港电影金像奖 (2006)
  最佳亚洲电影(提名)




Video
ID                                       : 1
Format                                   : AVC
Format/Info                              : Advanced Video Codec
Format profile                           : [email protected]
Format settings, CABAC                   : Yes
Format settings, ReFrames                : 5 frames
Codec ID                                 : V_MPEG4/ISO/AVC
Duration                                 : 1h 55mn
Bit rate                                 : 8 363 Kbps
Width                                    : 1 920 pixels
Height                                   : 816 pixels
Display aspect ratio                     : 2.35:1
Frame rate mode                          : Constant
Frame rate                               : 23.976 fps
Color space                              : YUV
Chroma subsampling                       : 4:2:0
Bit depth                                : 8 bits
Scan type                                : Progressive
Bits/(Pixel*Frame)                       : 0.223
Stream size                              : 6.57 GiB (83%)
Writing library                          : x264 core 98 r1643 59a9e03
Encoding settings                        : cabac=1 / ref=5 / deblock=1:0:0 / analyse=0x3:0x133 / me=umh / subme=7 / psy=1 / psy_rd=1.00:0.15 / mixed_ref=1 / me_range=16 / chroma_me=1 / trellis=1 / 8x8dct=1 / cqm=0 / deadzone=21,11 / fast_pskip=0 / chroma_qp_offset=-3 / threads=6 / sliced_threads=0 / nr=0 / decimate=0 / interlaced=0 / constrained_intra=0 / bframes=3 / b_pyramid=2 / b_adapt=1 / b_bias=0 / direct=1 / weightb=1 / weightp=2 / keyint=250 / keyint_min=25 / scenecut=40 / intra_refresh=0 / rc_lookahead=40 / rc=2pass / mbtree=1 / bitrate=8363 / ratetol=1.0 / qcomp=0.60 / qpmin=10 / qpmax=51 / qpstep=4 / cplxblur=20.0 / qblur=0.5 / ip_ratio=1.40 / aq=2:1.00
Language                                 : English
Default                                  : No
Forced                                   : No

Audio
ID                                       : 2
Format                                   : DTS
Format/Info                              : Digital Theater Systems
Mode                                     : 16
Format settings, Endianness              : Big
Codec ID                                 : A_DTS
Duration                                 : 1h 55mn
Bit rate mode                            : Constant
Bit rate                                 : 1 509 Kbps
Channel(s)                               : 6 channels
Channel positions                        : Front: L C R, Side: L R, LFE
Sampling rate                            : 48.0 KHz
Bit depth                                : 16 bits
Compression mode                         : Lossy
Stream size                              : 1.21 GiB (15%)
Language                                 : Korean
Default                                  : Yes
Forced                                   : No

Text
ID                                       : 3
Format                                   : UTF-8
Codec ID                                 : S_TEXT/UTF8
Codec ID/Info                            : UTF-8 Plain Text
Language                                 : English
Default                                  : Yes
Forced                                   : No





                                                                                                                                                                                                       

                                                                                                                       
                                                                                                                                                                                                                                                        Lady.Vengeance.2005.1080p.BluRay.x264-SSF.torrent (79.89 KB, 下载次数: 0)

回复

使用道具 举报

小黑屋|百度云资源论坛 |网站地图

本网站所有资源来自网络,如无意中侵犯了您的权益,请发邮件至 [email protected],立即清除相关链接

GMT+8, 2020-12-1 02:14 , Processed in 0.116781 second(s), 23 queries .

Powered by Discuz! X3.2

© 2001-2013 Comsenz Inc.

快速回复 返回顶部 返回列表