百度云资源论坛

 找回密码
 立即注册
搜索

猪头逛大街/寻堡奇遇/猪头汉堡包 2004.1080p.BluRay.x264-SECTOR7 7.95GB ... ...

[复制链接]
电影首发 发表于 2015-11-14 08:50:00 | 显示全部楼层 |阅读模式

译  名 猪头逛大街/寻堡奇遇/猪头汉堡包
片  名 Harold & Kumar Go to White Castle
年  代 2004
国  家 美国/加拿大/德国
类  别 冒险/喜剧
语  言 英语/北印度语
上映日期 2004-07-30
片  长 88 分钟
导  演 Danny Leiner
主  演 约翰·赵 John Cho
      卡尔·潘 Kal Penn
      尼尔·帕特里克·哈里斯 Neil Patrick Harris
      安东尼·安德森 Anthony Anderson
      佛莱德·威拉特 Fred Willard


简  介


  供职于招行的初级分析员韩裔青年哈罗德(约翰•赵 John Cho 饰)性格谨慎羞涩,本该放松的周末晚上却被同事塞了一堆工作。这边厢,哈罗德的好友卡玛(卡尔•潘 Kal Penn 饰)又主动搞砸了一次医院面试,这个出身医生世家的印裔青年因为不愿放弃毫无拘束的学生生活一直逃避从医。当晚,哈罗德与卡玛在吸了一通大麻后倍感饥肠辘辘,电视中来自“白色城堡”的汉堡广告引发了二人极大的兴趣,他们驱车前往,谁知本地最近的白色城堡已经在四年前转让,被汉堡勾起食欲的二人决定不顾一切寻找白色城堡,他们为此跨越了整个新泽西,这对儿性格迥异的朋友也在一路上体会到彼此友情的可贵……


获奖情况


  第14届MTV电影奖 (2005)
  MTV电影奖 最佳银幕组合(提名) 卡尔·潘 / 约翰·赵
  MTV电影奖 最佳音乐场景(提名) 卡尔·潘 / 约翰·赵




Video
ID                                       : 1
Format                                   : AVC
Format/Info                              : Advanced Video Codec
Format profile                           : [email protected]
Format settings, CABAC                   : Yes
Format settings, ReFrames                : 5 frames
Codec ID                                 : V_MPEG4/ISO/AVC
Duration                                 : 1h 28mn
Bit rate                                 : 11.4 Mbps
Width                                    : 1 920 pixels
Height                                   : 1 040 pixels
Display aspect ratio                     : 1.85:1
Frame rate mode                          : Constant
Frame rate                               : 23.976 fps
Color space                              : YUV
Chroma subsampling                       : 4:2:0
Bit depth                                : 8 bits
Scan type                                : Progressive
Bits/(Pixel*Frame)                       : 0.237
Stream size                              : 6.86 GiB (86%)
Writing library                          : x264 core 60
Encoding settings                        : cabac=1 / ref=5 / deblock=1:-1:-1 / analyse=0x3:0x133 / me=umh / subme=6 / psy_rd=1.000000 / brdo=1 / mixed_ref=1 / me_range=16 / chroma_me=1 / trellis=0 / 8x8dct=1 / cqm=1 / deadzone=21,11 / chroma_qp_offset=0 / threads=8 / nr=0 / decimate=1 / mbaff=0 / bframes=3 / b_pyramid=1 / b_adapt=1 / b_bias=0 / direct=3 / wpredb=1 / bime=1 / keyint=240 / keyint_min=24 / scenecut=40(pre) / rc=2pass / bitrate=11359 / ratetol=1.0 / rceq=\'blurCplx^(1-qComp)\' / qcomp=1.00 / qpmin=10 / qpmax=51 / qpstep=4 / cplxblur=20.0 / qblur=0.5 / ip_ratio=1.40 / pb_ratio=1.30 / aq=2:1.00
Language                                 : English
Default                                  : Yes
Forced                                   : No

Audio
ID                                       : 2
Format                                   : DTS
Format/Info                              : Digital Theater Systems
Format profile                           : ES
Mode                                     : 16
Format settings, Endianness              : Big
Codec ID                                 : A_DTS
Duration                                 : 1h 28mn
Bit rate mode                            : Constant
Bit rate                                 : 1 509 Kbps
Channel(s)                               : 6 channels
Channel positions                        : Front: L C R, Side: L R, LFE
Sampling rate                            : 48.0 KHz
Bit depth                                : 24 bits
Compression mode                         : Lossy
Stream size                              : 954 MiB (12%)
Default                                  : Yes
Forced                                   : No





                                                                                                                                                                                                       

                                                                                                                       
                                                                                                                                                                                                                                                        Harold.and.Kumar.Go.To.White.Castle.2004.1080p.BluRay.x264-SECTOR7.torrent (80.07 KB, 下载次数: 0)

回复

使用道具 举报

小黑屋|百度云资源论坛 |网站地图

本网站所有资源来自网络,如无意中侵犯了您的权益,请发邮件至 [email protected],立即清除相关链接

GMT+8, 2020-7-14 21:43 , Processed in 0.099737 second(s), 23 queries .

Powered by Discuz! X3.2

© 2001-2013 Comsenz Inc.

快速回复 返回顶部 返回列表