百度云资源论坛

 找回密码
 立即注册
搜索

[动作片] 佐罗传奇/黑侠梭罗Z传奇 Legend.of.Zorro.2005.1080p.BluRay.x264-CULTHD 7.95GB ... ...

[复制链接]
电影首发 发表于 2015-11-14 08:50:00 | 显示全部楼层 |阅读模式

译  名 佐罗传奇/蒙面侠苏洛2:不朽传奇/黑侠梭罗Z传奇
片  名 The Legend of Zorro
年  代 2005
国  家 美国
类  别 动作/冒险/西部
语  言 英语/西班牙语
上映日期 2005-10-24(英国)
片  长 129 分钟
导  演 马丁·坎贝尔 Martin Campbell
主  演 安东尼奥·班德拉斯 Antonio Banderas
      凯瑟琳·泽塔-琼斯 Catherine Zeta-Jones
      卢夫斯·塞维尔 Rufus Sewell
      Pedro Armendáriz Jr.


简  介


  19世纪中叶,黑侠佐罗的传奇故事在加利福尼亚继续流传。亚利桑德罗(安东尼奥·班德拉斯 Antonio Banderas 饰)从上一代佐罗手中接过这个正义的名号,虽然已经和伊莲娜(凯瑟琳·泽塔琼斯 Catherine Zeta-Jones 饰)完婚,并育有可爱的儿子瓦金(Adrian Alonso 饰),但他的正义事业从未停止。是时加州即将成为美利坚合众国的第31个州,百姓期盼已久的自由即将到来。然而就在此时,疯狂的麦吉文伯爵(Nick Chinlund 饰)及一个神秘的宗教组织却以武力抵制建州。人民的自由和安全危在旦夕,佐罗不得不以一己之力与他们展开对抗。另一方面,由于长期冷落家人,他和伊莲娜的婚姻也亮起了红灯。这个正义战士真正到了内忧外患的地步……
  本片荣获2006年青年艺术家奖剧情片最佳儿童表演奖(Adrian Alonso)。




Video
ID                                       : 1
Format                                   : AVC
Format/Info                              : Advanced Video Codec
Format profile                           : [email protected]
Format settings, CABAC                   : Yes
Format settings, ReFrames                : 3 frames
Codec ID                                 : V_MPEG4/ISO/AVC
Duration                                 : 2h 10mn
Bit rate                                 : 8 077 Kbps
Width                                    : 1 920 pixels
Height                                   : 816 pixels
Display aspect ratio                     : 2.35:1
Frame rate mode                          : Constant
Frame rate                               : 23.976 fps
Color space                              : YUV
Chroma subsampling                       : 4:2:0
Bit depth                                : 8 bits
Scan type                                : Progressive
Bits/(Pixel*Frame)                       : 0.215
Stream size                              : 7.21 GiB (91%)
Writing library                          : x264 core 64 r987M e71168d
Encoding settings                        : cabac=1 / ref=1 / deblock=1:0:0 / analyse=0x1:0x111 / me=hex / subme=6 / psy_rd=1.0:0.0 / brdo=1 / mixed_ref=0 / me_range=16 / chroma_me=1 / trellis=0 / 8x8dct=0 / cqm=0 / deadzone=21,11 / chroma_qp_offset=-2 / threads=3 / nr=0 / decimate=1 / mbaff=0 / bframes=3 / b_pyramid=1 / b_adapt=1 / b_bias=0 / direct=2 / wpredb=1 / bime=1 / keyint=250 / keyint_min=25 / scenecut=40(pre) / rc=2pass / bitrate=8077 / ratetol=1.0 / qcomp=0.60 / qpmin=10 / qpmax=51 / qpstep=4 / cplxblur=20.0 / qblur=0.5 / ip_ratio=1.40 / pb_ratio=1.30 / aq=1:1.00
Language                                 : English
Default                                  : Yes
Forced                                   : No

Audio
ID                                       : 2
Format                                   : AC-3
Format/Info                              : Audio Coding 3
Mode extension                           : CM (complete main)
Format settings, Endianness              : Big
Codec ID                                 : A_AC3
Duration                                 : 2h 10mn
Bit rate mode                            : Constant
Bit rate                                 : 640 Kbps
Channel(s)                               : 6 channels
Channel positions                        : Front: L C R, Side: L R, LFE
Sampling rate                            : 48.0 KHz
Compression mode                         : Lossy
Stream size                              : 597 MiB (7%)
Language                                 : English
Default                                  : Yes
Forced                                   : No

Text #1
ID                                       : 3
Format                                   : UTF-8
Codec ID                                 : S_TEXT/UTF8
Codec ID/Info                            : UTF-8 Plain Text
Language                                 : English
Default                                  : Yes
Forced                                   : No

Text #2
ID                                       : 4
Format                                   : UTF-8
Codec ID                                 : S_TEXT/UTF8
Codec ID/Info                            : UTF-8 Plain Text
Language                                 : Swedish
Default                                  : No
Forced                                   : No

Text #3
ID                                       : 5
Format                                   : UTF-8
Codec ID                                 : S_TEXT/UTF8
Codec ID/Info                            : UTF-8 Plain Text
Language                                 : Norwegian
Default                                  : No
Forced                                   : No

Text #4
ID                                       : 6
Format                                   : UTF-8
Codec ID                                 : S_TEXT/UTF8
Codec ID/Info                            : UTF-8 Plain Text
Language                                 : Danish
Default                                  : No
Forced                                   : No

Text #5
ID                                       : 7
Format                                   : UTF-8
Codec ID                                 : S_TEXT/UTF8
Codec ID/Info                            : UTF-8 Plain Text
Language                                 : Finnish
Default                                  : No
Forced                                   : No

Text #6
ID                                       : 8
Format                                   : UTF-8
Codec ID                                 : S_TEXT/UTF8
Codec ID/Info                            : UTF-8 Plain Text
Language                                 : Dutch
Default                                  : No
Forced                                   : No






                                                                                                                                                                                                       

                                                                                                                       
                                                                                                                                                                                                                                                        Legend.of.Zorro.2005.1080p.BluRay.x264-CULTHD.torrent (80.06 KB, 下载次数: 0)

回复

使用道具 举报

小黑屋|百度云资源论坛 |网站地图

本网站所有资源来自网络,如无意中侵犯了您的权益,请发邮件至 [email protected],立即清除相关链接

GMT+8, 2020-9-19 01:30 , Processed in 0.109873 second(s), 23 queries .

Powered by Discuz! X3.2

© 2001-2013 Comsenz Inc.

快速回复 返回顶部 返回列表