百度云资源论坛

 找回密码
 立即注册
搜索

[剧情片] 重返时间之旅/回到那个时间 Back.In.Time.2015.DOCU.720p.BluRay.x264.DD5.1-RARBG 3. ...

[复制链接]
电影首发 发表于 2015-11-13 07:05:00 | 显示全部楼层 |阅读模式

译  名 重返时间之旅/回到那个时间
片  名 Back in Time
年  代 2015
国  家 美国
类  别 剧情/科幻/冒险/纪录片
语  言 英语
上映日期 2015-10-20
导  演 Jason Aron
主  演 迈克尔·J·福克斯 Michael J. Fox
      莉·汤普森 Lea Thompson
      克里斯托弗·洛伊德 Christopher Lloyd


简  介


  2015年正值经典科幻电影《回到未来》上映一周年,影片《重返时间之旅》采访了影片的主创及粉丝,一起探讨了影片所产生的深远影响。



  • Video
  • ID                                       : 1
  • Format                                   : AVC
  • Format/Info                              : Advanced Video Codec
  • Format profile                           : [email protected]
  • Format settings, CABAC                   : Yes
  • Format settings, ReFrames                : 4 frames
  • Codec ID                                 : V_MPEG4/ISO/AVC
  • Duration                                 : 1h 34mn
  • Bit rate                                 : 5 500 Kbps
  • Width                                    : 1 280 pixels
  • Height                                   : 720 pixels
  • Display aspect ratio                     : 16:9
  • Frame rate mode                          : Constant
  • Frame rate                               : 23.976 fps
  • Color space                              : YUV
  • Chroma subsampling                       : 4:2:0
  • Bit depth                                : 8 bits
  • Scan type                                : Progressive
  • Bits/(Pixel*Frame)                       : 0.249
  • Stream size                              : 3.47 GiB (90%)
  • Title                                    : Back.In.Time.2015.DOCU.720p.BluRay.x264.DD5.1-RARBG
  • Writing library                          : x264 core 148 r2638 7599210
  • Encoding settings                        : cabac=1 / ref=4 / deblock=1:-2:-2 / analyse=0x3:0x113 / me=umh / subme=7 / psy=1 / psy_rd=1.00:0.15 / mixed_ref=1 / me_range=16 / chroma_me=1 / trellis=1 / 8x8dct=1 / cqm=0 / deadzone=21,11 / fast_pskip=1 / chroma_qp_offset=-3 / threads=12 / lookahead_threads=3 / sliced_threads=0 / nr=0 / decimate=1 / interlaced=0 / bluray_compat=0 / constrained_intra=0 / bframes=3 / b_pyramid=2 / b_adapt=2 / b_bias=0 / direct=3 / weightb=1 / open_gop=0 / weightp=2 / keyint=250 / keyint_min=25 / scenecut=40 / intra_refresh=0 / rc_lookahead=50 / rc=abr / mbtree=1 / bitrate=5500 / ratetol=1.0 / qcomp=0.60 / qpmin=0 / qpmax=69 / qpstep=4 / vbv_maxrate=31250 / vbv_bufsize=31250 / nal_hrd=none / filler=0 / ip_ratio=1.40 / aq=1:1.00
  • Language                                 : English
  • Default                                  : Yes
  • Forced                                   : No


  • Audio
  • ID                                       : 2
  • Format                                   : AC-3
  • Format/Info                              : Audio Coding 3
  • Mode extension                           : CM (complete main)
  • Format settings, Endianness              : Big
  • Codec ID                                 : A_AC3
  • Duration                                 : 1h 34mn
  • Bit rate mode                            : Constant
  • Bit rate                                 : 448 Kbps
  • Channel(s)                               : 6 channels
  • Channel positions                        : Front: L C R, Side: L R, LFE
  • Sampling rate                            : 48.0 KHz
  • Compression mode                         : Lossy
  • Delay relative to video                  : 83ms
  • Stream size                              : 302 MiB (8%)
  • Title                                    : Back.In.Time.2015.DOCU.720p.BluRay.x264.DD5.1-RARBG
  • Language                                 : English
  • Default                                  : Yes
  • Forced                                   : No


  • Text
  • ID                                       : 3
  • Format                                   : UTF-8
  • Codec ID                                 : S_TEXT/UTF8
  • Codec ID/Info                            : UTF-8 Plain Text
  • Language                                 : English
  • Default                                  : Yes
  • Forced                                   : No


  • Menu
  • 00:00:00.000                             : en:Back In Time
  • 00:09:22.479                             : en:Marty & Doc
  • 00:18:50.046                             : en:Starting Production
  • 00:29:48.704                             : en:The Time Machine
  • 00:40:09.324                             : en:Restoring The Delorean
  • 00:50:31.946                             : en:Inspired Fans
  • 00:59:32.486                             : en:The Premiere
  • 01:08:19.012                             : en:The Sequels
  • 01:15:41.454                             : en:The HoverBoard
  • 01:23:58.951                             : en:The Legacy





                                                                                                                                                                                                       

                                                                                                                       
                                                                                                                                                                                                                                                        Back.In.Time.2015.DOCU.720p.BluRay.x264.DD5.1-RARBG.torrent (77.64 KB, 下载次数: 0)

回复

使用道具 举报

小黑屋|百度云资源论坛 |网站地图

本网站所有资源来自网络,如无意中侵犯了您的权益,请发邮件至 [email protected],立即清除相关链接

GMT+8, 2020-10-28 04:57 , Processed in 0.109268 second(s), 23 queries .

Powered by Discuz! X3.2

© 2001-2013 Comsenz Inc.

快速回复 返回顶部 返回列表