百度云资源论坛

 找回密码
 立即注册
搜索

[动作片] 锦衣卫 14.Blades.2010.CHINESE.1080p.BluRay.x264.DTS-FGT 10.91GB

[复制链接]
电影首发 发表于 2015-11-13 07:00:00 | 显示全部楼层 |阅读模式

译  名 14Blades
片  名 锦衣卫
年  代 2010
国  家 中国大陆/香港/新加坡
类  别 剧情/动作/惊悚/武侠/古装
语  言 汉语普通话/粤语
上映日期 2010-02-03(中国大陆)
片  长 112分钟
导  演 李仁港 Daniel Lee
主  演 甄子丹 Donnie Yen
      赵薇 Wei Zhao
      吴尊 Chun Wu
      徐子珊 Kate Tsui
      戚玉武 Yuwu Qi
      陈观泰 Kuan Tai Chen
      午马 Ma Wu
      洪金宝 Sammo Hung Kam-Bo
      罗家英 Kar-Ying Law
      刘松仁 Damian Lau


简  介


  明朝末年,皇帝昏庸,曾保家卫国屡建功勋的锦衣卫被奸佞利用,沦为暗杀工具,令世人闻风丧胆。因谋权篡位而被施以刖刑的庆亲王(洪金宝 饰)虽被流放塞北多年,然野心不死,暗中勾结大太监贾精忠(罗家英 饰),企图卷土重来。贾精忠在中土掀起一场腥风血雨,不愿苟从者格杀勿论。锦衣卫指挥史青龙(甄子丹 饰)在执行任务过程中因发现贾精忠阴谋而被追杀,身受重创后委身正义镖局以图保护玉玺。茫茫大漠,青龙在镖头之女乔花(赵薇 饰)以及天鹰帮帮主大漠判官(吴尊 饰)的帮助下准备阻止庆亲王与贾精忠的阴谋,此时,庆亲王义女——拥有绝世武功的脱脱(徐子珊 饰)身负追杀青龙的使命亦赶至雁门关……


获奖情况


  第29届香港电影金像奖 (2010)
  最佳动作设计(提名) 谷轩昭
  最佳音响效果(提名) 郑颖园 / 王庆生




Video
ID                                       : 1
Format                                   : AVC
Format/Info                              : Advanced Video Codec
Format profile                           : [email protected]
Format settings, CABAC                   : Yes
Format settings, ReFrames                : 5 frames
Codec ID                                 : V_MPEG4/ISO/AVC
Duration                                 : 1h 52mn
Bit rate                                 : 12.3 Mbps
Width                                    : 1 920 pixels
Height                                   : 816 pixels
Display aspect ratio                     : 2.35:1
Frame rate mode                          : Constant
Frame rate                               : 24.000 fps
Color space                              : YUV
Chroma subsampling                       : 4:2:0
Bit depth                                : 8 bits
Scan type                                : Progressive
Bits/(Pixel*Frame)                       : 0.328
Stream size                              : 9.51 GiB (87%)
Writing library                          : x264 core 93 r1542 5b86182
Encoding settings                        : cabac=1 / ref=5 / deblock=1:-3:-3 / analyse=0x3:0x113 / me=umh / subme=10 / psy=1 / psy_rd=1.00:0.00 / mixed_ref=0 / me_range=64 / chroma_me=1 / trellis=2 / 8x8dct=1 / cqm=0 / deadzone=21,11 / fast_pskip=0 / chroma_qp_offset=-4 / threads=6 / sliced_threads=0 / nr=0 / decimate=0 / interlaced=0 / constrained_intra=0 / bframes=8 / b_pyramid=2 / b_adapt=2 / b_bias=0 / direct=3 / wpredb=1 / wpredp=2 / keyint=250 / keyint_min=25 / scenecut=40 / intra_refresh=0 / rc_lookahead=50 / rc=2pass / mbtree=1 / bitrate=12330 / ratetol=1.0 / qcomp=0.60 / qpmin=10 / qpmax=51 / qpstep=4 / cplxblur=20.0 / qblur=0.5 / vbv_maxrate=38000 / vbv_bufsize=30000 / ip_ratio=1.40 / aq=1:0.80 / nal_hrd=none
Language                                 : Chinese
Default                                  : Yes
Forced                                   : No

Audio
ID                                       : 2
Format                                   : DTS
Format/Info                              : Digital Theater Systems
Mode                                     : 16
Format settings, Endianness              : Big
Codec ID                                 : A_DTS
Duration                                 : 1h 52mn
Bit rate mode                            : Constant
Bit rate                                 : 1 510 Kbps
Channel(s)                               : 6 channels
Channel positions                        : Front: L C R, Side: L R, LFE
Sampling rate                            : 48.0 KHz
Bit depth                                : 24 bits
Compression mode                         : Lossy
Stream size                              : 1.19 GiB (11%)
Language                                 : Chinese
Default                                  : Yes
Forced                                   : No

Text
ID                                       : 3
Format                                   : UTF-8
Codec ID                                 : S_TEXT/UTF8
Codec ID/Info                            : UTF-8 Plain Text
Language                                 : English
Default                                  : Yes
Forced                                   : Yes

Menu
00:00:00.000                             : en:00:00:00.000
00:08:39.917                             : en:00:08:39.917
00:20:00.875                             : en:00:20:00.875
00:27:16.333                             : en:00:27:16.333
00:40:03.042                             : en:00:40:03.042
00:49:40.125                             : en:00:49:40.125
00:56:39.292                             : en:00:56:39.292
01:07:08.458                             : en:01:07:08.458
01:24:40.458                             : en:01:24:40.458
01:32:42.500                             : en:01:32:42.500
01:39:25.833                             : en:01:39:25.833
01:45:48.042                             : en:01:45:48.042






                                                                                                                                                                                                       

                                                                                                                       
                                                                                                                                                                                                                                                        14.Blades.2010.CHINESE.1080p.BluRay.x264.DTS-FGT.torrent (55.17 KB, 下载次数: 0)

回复

使用道具 举报

小黑屋|百度云资源论坛 |网站地图

本网站所有资源来自网络,如无意中侵犯了您的权益,请发邮件至 [email protected],立即清除相关链接

GMT+8, 2020-9-24 21:46 , Processed in 0.102417 second(s), 23 queries .

Powered by Discuz! X3.2

© 2001-2013 Comsenz Inc.

快速回复 返回顶部 返回列表