百度云资源论坛

 找回密码
 立即注册
搜索

[惊悚片] 间谍 Spione.1928.GERMAN.1080p.BluRay.x264.DTS-FGT 11.88GB

[复制链接]
电影首发 发表于 2015-11-13 07:00:00 | 显示全部楼层 |阅读模式

译  名 间谍
片  名 Spione
年  代 1928
国  家 德国
类  别 惊悚
语  言 德语
上映日期 1928-03-22
片  长 178 分钟(德国)/90 分钟(美国)/144 分钟(西班牙)/150 分钟(阿根廷)
导  演 弗里茨·朗 Fritz Lang
主  演 Rudolf Klein-Rogge
      Gerda Maurus
      Lien Deyers


简  介


  现代科技的战争,是一场资讯的争夺。在007之前有一个超级间谍排行326号,他头脑发达,迷恋高科技,冒充银行家盗窃国家机密。赫尔在他现代化的办公室内,足不出户,便能盗取国家机密,并对敌人的行踪了如指掌。赫尔运用当时的高科技,发动最早的一场“资讯科技战”。




Video
ID                                       : 1
Format                                   : AVC
Format/Info                              : Advanced Video Codec
Format profile                           : [email protected]
Format settings, CABAC                   : Yes
Format settings, ReFrames                : 5 frames
Codec ID                                 : V_MPEG4/ISO/AVC
Duration                                 : 2h 30mn
Bit rate                                 : 9 796 Kbps
Width                                    : 1 440 pixels
Height                                   : 1 080 pixels
Display aspect ratio                     : 4:3
Frame rate mode                          : Constant
Frame rate                               : 23.976 fps
Color space                              : YUV
Chroma subsampling                       : 4:2:0
Bit depth                                : 8 bits
Scan type                                : Progressive
Bits/(Pixel*Frame)                       : 0.263
Stream size                              : 10.1 GiB (85%)
Writing library                          : x264 core 142 r2431 ac76440
Encoding settings                        : cabac=1 / ref=5 / deblock=1:-3:-3 / analyse=0x3:0x133 / me=umh / subme=9 / psy=1 / psy_rd=1.00:0.00 / mixed_ref=1 / me_range=24 / chroma_me=1 / trellis=1 / 8x8dct=1 / cqm=0 / deadzone=21,11 / fast_pskip=0 / chroma_qp_offset=-2 / threads=4 / lookahead_threads=1 / sliced_threads=0 / nr=0 / decimate=0 / interlaced=0 / bluray_compat=0 / constrained_intra=0 / bframes=4 / b_pyramid=2 / b_adapt=2 / b_bias=0 / direct=1 / weightb=1 / open_gop=0 / weightp=2 / keyint=230 / keyint_min=23 / scenecut=40 / intra_refresh=0 / rc_lookahead=60 / rc=2pass / mbtree=1 / bitrate=9796 / ratetol=1.0 / qcomp=0.60 / qpmin=0 / qpmax=69 / qpstep=4 / cplxblur=20.0 / qblur=0.5 / vbv_maxrate=40000 / vbv_bufsize=30000 / nal_hrd=none / filler=0 / ip_ratio=1.40 / aq=1:1.00
Language                                 : English
Default                                  : Yes
Forced                                   : No

Audio
ID                                       : 2
Format                                   : DTS
Format/Info                              : Digital Theater Systems
Mode                                     : 16
Format settings, Endianness              : Big
Codec ID                                 : A_DTS
Duration                                 : 2h 30mn
Bit rate mode                            : Constant
Bit rate                                 : 1 509 Kbps
Channel(s)                               : 2 channels
Channel positions                        : Front: L R
Sampling rate                            : 48.0 KHz
Bit depth                                : 16 bits
Compression mode                         : Lossy
Stream size                              : 1.59 GiB (13%)
Language                                 : German
Default                                  : Yes
Forced                                   : No

Text
ID                                       : 3
Format                                   : UTF-8
Codec ID                                 : S_TEXT/UTF8
Codec ID/Info                            : UTF-8 Plain Text
Language                                 : English
Default                                  : Yes
Forced                                   : Yes

Menu
00:00:00.000                             : en:00:00:00.000
00:04:03.118                             : en:00:04:03.118
00:13:21.801                             : en:00:13:21.801
00:21:04.805                             : en:00:21:04.805
00:26:22.748                             : en:00:26:22.748
00:38:32.977                             : en:00:38:32.977
00:44:21.284                             : en:00:44:21.284
00:53:38.173                             : en:00:53:38.173
01:01:36.693                             : en:01:01:36.693
01:13:24.567                             : en:01:13:24.567
01:18:37.671                             : en:01:18:37.671
01:27:26.741                             : en:01:27:26.741
01:32:22.620                             : en:01:32:22.620
01:42:36.233                             : en:01:42:36.233
01:53:52.367                             : en:01:53:52.367
02:02:23.419                             : en:02:02:23.419
02:10:47.298                             : en:02:10:47.298
02:24:12.561                             : en:02:24:12.561





                                                                                                                                                                                                       

                                                                                                                       
                                                                                                                                                                                                                                                        Spione.1928.GERMAN.1080p.BluRay.x264.DTS-FGT.torrent (60.02 KB, 下载次数: 0)

回复

使用道具 举报

小黑屋|百度云资源论坛 |网站地图

本网站所有资源来自网络,如无意中侵犯了您的权益,请发邮件至 [email protected],立即清除相关链接

GMT+8, 2020-9-26 14:21 , Processed in 0.146238 second(s), 23 queries .

Powered by Discuz! X3.2

© 2001-2013 Comsenz Inc.

快速回复 返回顶部 返回列表