百度云资源论坛

 找回密码
 立即注册
搜索

史楚锡流浪记/三人行 Stroszek.1977.GERMAN.1080p.BluRay.x264.DTS-FGT 8.64GB ... ...

[复制链接]
电影首发 发表于 2015-11-13 07:00:00 | 显示全部楼层 |阅读模式

译  名 史楚锡流浪记/三人行
片  名 Stroszek
年  代 1977
国  家 西德
类  别 剧情
语  言 英语/德语
上映日期 1977-01-12
片  长 115 分钟
导  演 沃纳·赫尔佐格 Werner Herzog
主  演 布鲁诺·斯列斯坦 Bruno S.
      伊娃·马特斯 Eva Mattes
      Clemens Scheitz


简  介


  史楚锡(Clemens Scheitz 饰)是一名街头流浪艺人,穷苦的生活让他感到走投无路,在邻居的怂恿下,他和女友艾娃(Eva Mattes 饰)决定远赴美国,开始他们的淘金之旅。在艾娃通过出卖身体筹得路费之后,三人上路了。初到美国,一切都显得光明而充满希望,三人均找到了稳定的工作过上了平静的生活,存了一笔小钱。一次偶然中,史楚锡通过朋友得知他可以通过分期付款的方式获得属于自己的房子,做梦都想有一个家的史楚锡毫不犹豫的出手了。
  第一次付款的日期很快就到来了,可是史楚锡却发现他们无法支付高额的房款,随之而来的就是第二次付款日。银行没收了史楚锡的房产,在异国他乡,史楚锡重新变成了穷困潦倒的流浪汉。在无谓的挣扎之后,史楚锡终于认命了,在一间荒芜的游乐园里,他结束了自己的生命。





Video
ID                                       : 1
Format                                   : AVC
Format/Info                              : Advanced Video Codec
Format profile                           : [email protected]
Format settings, CABAC                   : Yes
Format settings, ReFrames                : 4 frames
Codec ID                                 : V_MPEG4/ISO/AVC
Duration                                 : 1h 47mn
Bit rate                                 : 9 956 Kbps
Width                                    : 1 792 pixels
Height                                   : 1 080 pixels
Display aspect ratio                     : 5:3
Frame rate mode                          : Constant
Frame rate                               : 24.000 fps
Color space                              : YUV
Chroma subsampling                       : 4:2:0
Bit depth                                : 8 bits
Scan type                                : Progressive
Bits/(Pixel*Frame)                       : 0.214
Stream size                              : 7.33 GiB (85%)
Writing library                          : x264 core 142 r2431 ac76440
Encoding settings                        : cabac=1 / ref=4 / deblock=1:-3:-3 / analyse=0x3:0x133 / me=umh / subme=9 / psy=1 / psy_rd=1.00:0.00 / mixed_ref=1 / me_range=24 / chroma_me=1 / trellis=1 / 8x8dct=1 / cqm=0 / deadzone=21,11 / fast_pskip=0 / chroma_qp_offset=-2 / threads=4 / lookahead_threads=1 / sliced_threads=0 / nr=0 / decimate=0 / interlaced=0 / bluray_compat=0 / constrained_intra=0 / bframes=4 / b_pyramid=2 / b_adapt=2 / b_bias=0 / direct=1 / weightb=1 / open_gop=0 / weightp=2 / keyint=230 / keyint_min=24 / scenecut=40 / intra_refresh=0 / rc_lookahead=60 / rc=2pass / mbtree=1 / bitrate=9956 / ratetol=1.0 / qcomp=0.60 / qpmin=0 / qpmax=69 / qpstep=4 / cplxblur=20.0 / qblur=0.5 / vbv_maxrate=40000 / vbv_bufsize=30000 / nal_hrd=none / filler=0 / ip_ratio=1.40 / aq=1:1.00
Language                                 : German
Default                                  : Yes
Forced                                   : No

Audio
ID                                       : 2
Format                                   : DTS
Format/Info                              : Digital Theater Systems
Mode                                     : 16
Format settings, Endianness              : Big
Codec ID                                 : A_DTS
Duration                                 : 1h 47mn
Bit rate mode                            : Constant
Bit rate                                 : 1 509 Kbps
Channel(s)                               : 2 channels
Channel positions                        : Front: L R
Sampling rate                            : 48.0 KHz
Bit depth                                : 24 bits
Compression mode                         : Lossy
Stream size                              : 1.14 GiB (13%)
Language                                 : German
Default                                  : Yes
Forced                                   : No

Text
ID                                       : 3
Format                                   : VobSub
Muxing mode                              : zlib
Codec ID                                 : S_VOBSUB
Codec ID/Info                            : Picture based subtitle format used on DVDs
Language                                 : English
Default                                  : Yes
Forced                                   : Yes

Menu
00:00:00.000                             : :00:00:00.000
00:08:55.917                             : :00:08:55.917
00:18:56.500                             : :00:18:56.500
00:28:24.417                             : :00:28:24.417
00:37:19.417                             : :00:37:19.417
00:42:06.250                             : :00:42:06.250
00:49:00.000                             : :00:49:00.000
00:56:20.625                             : :00:56:20.625
01:04:51.708                             : :01:04:51.708
01:13:00.625                             : :01:13:00.625
01:26:07.458                             : :01:26:07.458
01:33:44.000                             : :01:33:44.000





                                                                                                                                                                                                       

                                                                                                                       
                                                                                                                                                                                                                                                        Stroszek.1977.GERMAN.1080p.BluRay.x264.DTS-FGT.torrent (87.02 KB, 下载次数: 0)

回复

使用道具 举报

小黑屋|百度云资源论坛 |网站地图

本网站所有资源来自网络,如无意中侵犯了您的权益,请发邮件至 [email protected],立即清除相关链接

GMT+8, 2020-11-28 18:48 , Processed in 0.142636 second(s), 23 queries .

Powered by Discuz! X3.2

© 2001-2013 Comsenz Inc.

快速回复 返回顶部 返回列表