百度云资源论坛

 找回密码
 立即注册
搜索

[恐怖片] 魔鬼骑士 Tales.From.The.Crypt.Demon.Knight.1995.1080p.BluRay.x264.DTS-FGT 13.23G ...

[复制链接]
电影首发 发表于 2015-11-13 07:00:00 | 显示全部楼层 |阅读模式

译  名 魔鬼骑士
片  名 Demon Knight
年  代 1995
国  家 美国
类  别 恐怖/惊悚
语  言 英语
上映日期 1995-03-23
片  长 92 分钟
导  演 厄内斯特·R·迪克森 Ernest R. Dickerson / Gilbert Adler
主  演 比利·赞恩 Billy Zane
      约翰·卡西尔 John Kassir
      威廉姆·赛德勒 William Sadler
      贾达·萍克·史密斯 Jada Pinkett Smith


简  介


  在一部谋杀亲夫的血腥恐怖电影片场,怪模怪样的导演正在吹毛求疵。他面对镜头,开始给观众展示一个新的故事:新墨西哥州的某小镇附近,一名逃逸者用车祸拖延追索后经人指点入住了一家由教堂改造成的旅馆,这里聚集着几个落寞的住客,旅馆服务员杰瑞琳(Jada Pinkett Smith 饰)对工作好不耐烦。追逐者在车祸现场通过警察的帮助寻至旅馆,他声称名为布雷克的逃逸者偷走了他的钥匙瓶,但被拆穿后马上露出了魔鬼的真面目。原来布雷克是救世主的继承者,凭借钥匙瓶内的圣血,布雷克与众人将魔鬼抵御在旅馆之外,魔鬼和召唤魔们不断用强攻与幻术试图闯入,危急关头,布雷克将救世主的使命传递给杰瑞琳……
  本片导演在大银幕和电视上皆有《幽冥怪谈》的系列作品,这部《魔鬼骑士》是先声之作。主角Jada Pinkett Smith后来在《黑客帝国》系列中大出风头。




Video
ID                                       : 1
Format                                   : AVC
Format/Info                              : Advanced Video Codec
Format profile                           : [email protected]
Format settings, CABAC                   : Yes
Format settings, ReFrames                : 4 frames
Codec ID                                 : V_MPEG4/ISO/AVC
Duration                                 : 1h 32mn
Bit rate                                 : 19.0 Mbps
Width                                    : 1 920 pixels
Height                                   : 1 040 pixels
Display aspect ratio                     : 1.85:1
Frame rate mode                          : Constant
Frame rate                               : 23.976 fps
Color space                              : YUV
Chroma subsampling                       : 4:2:0
Bit depth                                : 8 bits
Scan type                                : Progressive
Bits/(Pixel*Frame)                       : 0.397
Stream size                              : 12.0 GiB (91%)
Writing library                          : x264 core 148 r2597+53 5548565 t_mod_Custom [[email protected] X86_64]
Encoding settings                        : cabac=1 / ref=4 / deblock=1:-3:-3 / analyse=0x3:0x113 / me=umh / subme=11 / psy=1 / fade_compensate=0.00 / psy_rd=1.00:0.00 / mixed_ref=1 / me_range=48 / chroma_me=1 / trellis=2 / 8x8dct=1 / cqm=0 / deadzone=21,11 / fast_pskip=0 / chroma_qp_offset=-2 / threads=12 / lookahead_threads=3 / sliced_threads=0 / nr=0 / decimate=0 / interlaced=0 / bluray_compat=0 / constrained_intra=0 / fgo=0 / bframes=14 / b_pyramid=2 / b_adapt=2 / b_bias=0 / direct=3 / weightb=0 / open_gop=0 / weightp=2 / keyint=240 / keyint_min=23 / scenecut=40 / intra_refresh=0 / rc_lookahead=40 / rc=2pass / mbtree=0 / bitrate=19000 / ratetol=1.0 / qcomp=0.60 / qpmin=0:0:0 / qpmax=69:69:69 / qpstep=4 / cplxblur=20.0 / qblur=0.5 / vbv_maxrate=38000 / vbv_bufsize=30000 / nal_hrd=none / filler=0 / ip_ratio=1.10 / pb_ratio=1.10 / aq=3:1.00 / aq-sensitivity=10.00 / aq-factor=1.00:1.00:1.00 / aq2=1:0.60 / aq2-sensitivity=15.00 / aq2-factor=1.00:1.00:1.00 / aq3=0
Language                                 : English
Default                                  : Yes
Forced                                   : No

Audio
ID                                       : 2
Format                                   : DTS
Format/Info                              : Digital Theater Systems
Mode                                     : 16
Format settings, Endianness              : Big
Codec ID                                 : A_DTS
Duration                                 : 1h 32mn
Bit rate mode                            : Constant
Bit rate                                 : 1 509 Kbps
Channel(s)                               : 6 channels
Channel positions                        : Front: L C R, Side: L R, LFE
Sampling rate                            : 48.0 KHz
Bit depth                                : 24 bits
Compression mode                         : Lossy
Stream size                              : 997 MiB (7%)
Language                                 : English
Default                                  : Yes
Forced                                   : No

Text
ID                                       : 3
Format                                   : UTF-8
Codec ID                                 : S_TEXT/UTF8
Codec ID/Info                            : UTF-8 Plain Text
Language                                 : English
Default                                  : Yes
Forced                                   : No

Menu
00:00:00.000                             : en:Going Hollywood
00:04:40.113                             : en:Welcome To Wormwood ( Main Titles )
00:10:14.823                             : en:Room For The Night
00:15:28.803                             : en:Clean Sheets
00:19:12.943                             : en:The Key
00:25:14.430                             : en:Heads Up
00:31:44.945                             : en:Who Are You?
00:37:00.593                             : en:Let Me In
00:42:59.827                             : en:Find A Way Out
00:48:39.583                             : en:Separated
00:52:02.995                             : en:The Seventh Key
00:58:06.108                             : en:Give Up Your Soul
01:02:51.935                             : en:Last Call
01:06:20.977                             : en:Let\'s Make A Deal
01:09:31.376                             : en:Time To Play
01:15:10.923                             : enemon Dancing
01:20:55.559                             : en:Kiss Of Death
01:26:42.823                             : en:End Titles






                                                                                                                                                                                                       

                                                                                                                       
                                                                                                                                                                                                                                                        Tales.From.The.Crypt.Demon.Knight.1995.1080p.BluRay.x264.DTS-FGT.torrent (66.78 KB, 下载次数: 0)

回复

使用道具 举报

小黑屋|百度云资源论坛 |网站地图

本网站所有资源来自网络,如无意中侵犯了您的权益,请发邮件至 [email protected],立即清除相关链接

GMT+8, 2020-9-27 22:07 , Processed in 0.116051 second(s), 28 queries .

Powered by Discuz! X3.2

© 2001-2013 Comsenz Inc.

快速回复 返回顶部 返回列表