百度云资源论坛

 找回密码
 立即注册
搜索

[剧情片] 卡斯帕尔 豪泽尔之谜/加斯柏荷西之谜 1974.GERMAN.1080p.BluRay.x264.DTS-FGT 8.2GB . ...

[复制链接]
电影首发 发表于 2015-11-13 07:00:00 | 显示全部楼层 |阅读模式

译  名 卡斯帕尔·豪泽尔之谜/人人为自己,上帝反大家/人人为自己 上帝反众人/加斯·荷伯之谜/加斯柏荷西之谜
片  名 Kaspar Hauser - Jeder für sich und Gott gegen alle
年  代 1974
国  家 原西德
类  别 剧情/传记
语  言 德语
上映日期 1974-11-01
片  长 110 分钟
导  演 沃纳·赫尔佐格 Werner Herzog
主  演 布鲁诺·斯列斯坦 Bruno S.
      Walter Ladengast
      布里奇特·米拉 Brigitte Mira
      Willy Semmelrogge
      Michael Kroecher
      Hans Musäus


简  介


  加斯荷伯(布鲁诺·斯列斯坦 Bruno S. 饰)从小生活在不见天日的地下室里,仅靠稀少的水源和面包维持生命,直到数十年后,早已成年的他才被带离地下室,第一次亲眼看到了外面的大千世界。可是,噩梦并没有结束,他只不过是从一个地狱跌落到了另一个。在人们的眼中,加斯荷伯并非一个有血有肉的人类,只是一个可供研究和玩乐的部件罢了。刚开始,人们对加斯荷伯充满了好奇,并且,这些好奇里包含了某些恶意。渐渐地,对这个无趣而可怜的物体,大家都失去了兴趣,加斯荷伯被送进了马戏团。
  几经波折之后,被一名学者收留的加斯荷伯终于过上了平静安全的生活,学者教会了他读写,为他打开了了解世界的另一扇大门。没想到,加斯荷伯对于文明和文化有着异常敏锐和深刻的见解,面对他尖锐直白的语言,被戳到痛处的人类愤怒了。


获奖情况


  第28届戛纳电影节 (1975)
  主竞赛单元 金棕榈奖(提名) 沃纳·赫尔佐格
  主竞赛单元 评审团大奖 沃纳·赫尔佐格
  费比西奖 竞赛单元奖 沃纳·赫尔佐格
  天主教人道精神奖 沃纳·赫尔佐格





Video
ID                                       : 1
Format                                   : AVC
Format/Info                              : Advanced Video Codec
Format profile                           : [email protected]
Format settings, CABAC                   : Yes
Format settings, ReFrames                : 4 frames
Codec ID                                 : V_MPEG4/ISO/AVC
Duration                                 : 1h 49mn
Bit rate                                 : 9 956 Kbps
Width                                    : 1 792 pixels
Height                                   : 1 080 pixels
Display aspect ratio                     : 5:3
Frame rate mode                          : Constant
Frame rate                               : 23.976 fps
Color space                              : YUV
Chroma subsampling                       : 4:2:0
Bit depth                                : 8 bits
Scan type                                : Progressive
Bits/(Pixel*Frame)                       : 0.215
Stream size                              : 7.45 GiB (91%)
Writing library                          : x264 core 142 r2431 ac76440
Encoding settings                        : cabac=1 / ref=4 / deblock=1:-3:-3 / analyse=0x3:0x133 / me=umh / subme=9 / psy=1 / psy_rd=1.00:0.00 / mixed_ref=1 / me_range=24 / chroma_me=1 / trellis=1 / 8x8dct=1 / cqm=0 / deadzone=21,11 / fast_pskip=0 / chroma_qp_offset=-2 / threads=4 / lookahead_threads=1 / sliced_threads=0 / nr=0 / decimate=0 / interlaced=0 / bluray_compat=0 / constrained_intra=0 / bframes=4 / b_pyramid=2 / b_adapt=2 / b_bias=0 / direct=1 / weightb=1 / open_gop=0 / weightp=2 / keyint=230 / keyint_min=23 / scenecut=40 / intra_refresh=0 / rc_lookahead=60 / rc=2pass / mbtree=1 / bitrate=9956 / ratetol=1.0 / qcomp=0.60 / qpmin=0 / qpmax=69 / qpstep=4 / cplxblur=20.0 / qblur=0.5 / vbv_maxrate=40000 / vbv_bufsize=30000 / nal_hrd=none / filler=0 / ip_ratio=1.40 / aq=1:1.00
Language                                 : German
Default                                  : Yes
Forced                                   : No

Audio
ID                                       : 2
Format                                   : DTS
Format/Info                              : Digital Theater Systems
Mode                                     : 16
Format settings, Endianness              : Big
Codec ID                                 : A_DTS
Duration                                 : 1h 49mn
Bit rate mode                            : Constant
Bit rate                                 : 768 Kbps
Channel(s)                               : 2 channels
Channel positions                        : Front: L R
Sampling rate                            : 48.0 KHz
Bit depth                                : 24 bits
Compression mode                         : Lossy
Stream size                              : 602 MiB (7%)
Language                                 : German
Default                                  : Yes
Forced                                   : No

Text
ID                                       : 3
Format                                   : UTF-8
Codec ID                                 : S_TEXT/UTF8
Codec ID/Info                            : UTF-8 Plain Text
Language                                 : English
Default                                  : Yes
Forced                                   : Yes

Menu
00:00:00.000                             : :00:00:00.000
00:16:51.135                             : :00:16:51.135
00:23:07.845                             : :00:23:07.845
00:30:32.831                             : :00:30:32.831
00:38:12.373                             : :00:38:12.373
00:47:36.187                             : :00:47:36.187
00:55:20.984                             : :00:55:20.984
01:02:20.195                             : :01:02:20.195
01:10:28.641                             : :01:10:28.641
01:18:16.275                             : :01:18:16.275
01:28:02.402                             : :01:28:02.402
01:39:58.659                             : :01:39:58.659





                                                                                                                                                                                                       

                                                                                                                       
                                                                                                                                                                                                                                                        The.Enigma.of.Kaspar.Hauser.1974.GERMAN.1080p.BluRay.x264.DTS-FGT.torrent (82.7 KB, 下载次数: 0)

回复

使用道具 举报

小黑屋|百度云资源论坛 |网站地图

本网站所有资源来自网络,如无意中侵犯了您的权益,请发邮件至 [email protected],立即清除相关链接

GMT+8, 2020-9-24 06:13 , Processed in 0.099906 second(s), 23 queries .

Powered by Discuz! X3.2

© 2001-2013 Comsenz Inc.

快速回复 返回顶部 返回列表