百度云资源论坛

 找回密码
 立即注册
搜索

柔肤/软玉温香 The.Soft.Skin.1964.FRENCH.1080p.BluRay.x264.DTS-FGT 8.87GB

[复制链接]
电影首发 发表于 2015-11-13 07:00:00 | 显示全部楼层 |阅读模式

译  名 柔肤/软玉温香
片  名 La peau douce
年  代 1964
国  家 法国/葡萄牙
类  别 剧情/爱情
语  言 法语/葡萄牙语/英语
上映日期 1964-04-20
片  长 113 分钟/France: 119 分钟(director's cut)/Portugal: 110 分钟(cut version)
导  演 弗朗索瓦·特吕弗 François Truffaut
主  演 让·德赛利 Jean Desailly
      Nelly Benedetti
      弗朗索瓦·朵列 Françoise Dorléac
      Daniel Ceccaldi


简  介


  Pierre Lachenay(让·德赛利 Jean Desailly 饰)是一个已婚的作家和杂志主编,在一次出差时,他被美丽的空姐 Nicole(弗朗索瓦·朵列 Françoise Dorléac 饰)所吸引。碰巧的是,两人竟在同一间酒店见面了。Pierre邀请Ni cole出去喝东西,两人聊了一夜,不久,两人便爱得无法自拔。Pierre要回巴黎了,Nicole在他的本子上留了电话号码。回到家的Pierre瞒着妻子Franca (Nelly Benedetti 饰)偷偷和Nicole联系。他更主动申请出差去Reims,只为了能带上Nicole,暂时远离他的妻子和女儿。在Reims,Pierre为了讲座忙得不可开交,和Nicole闹了矛盾,两人提前离开了Reims。碰巧Pierre的妻子打电话到Reims,发现Pierre已经离开,开始怀疑Pierre。后来,Nicole厌倦了这段关系,离开了Pierre。而另一边,Franca则准备和Pierre离婚。直到Franca发现了Pierre和Nicole的亲密合照,愤怒和嫉妒促使她拿出猎枪,走到街上去寻找Pierre,以了结这一切......


获奖情况


  第17届戛纳电影节 (1964)
  主竞赛单元 金棕榈奖(提名) 弗朗索瓦·特吕弗




Video
ID                                       : 1
Format                                   : AVC
Format/Info                              : Advanced Video Codec
Format profile                           : [email protected]
Format settings, CABAC                   : Yes
Format settings, ReFrames                : 4 frames
Codec ID                                 : V_MPEG4/ISO/AVC
Duration                                 : 1h 58mn
Bit rate                                 : 9 956 Kbps
Width                                    : 1 800 pixels
Height                                   : 1 080 pixels
Display aspect ratio                     : 5:3
Frame rate mode                          : Constant
Frame rate                               : 23.976 fps
Color space                              : YUV
Chroma subsampling                       : 4:2:0
Bit depth                                : 8 bits
Scan type                                : Progressive
Bits/(Pixel*Frame)                       : 0.214
Stream size                              : 8.06 GiB (91%)
Writing library                          : x264 core 146 r2538 121396c
Encoding settings                        : cabac=1 / ref=4 / deblock=1:-3:-3 / analyse=0x3:0x133 / me=umh / subme=9 / psy=1 / psy_rd=1.00:0.00 / mixed_ref=1 / me_range=24 / chroma_me=1 / trellis=1 / 8x8dct=1 / cqm=0 / deadzone=21,11 / fast_pskip=0 / chroma_qp_offset=-2 / threads=6 / lookahead_threads=1 / sliced_threads=0 / nr=0 / decimate=0 / interlaced=0 / bluray_compat=0 / constrained_intra=0 / bframes=4 / b_pyramid=2 / b_adapt=2 / b_bias=0 / direct=1 / weightb=1 / open_gop=0 / weightp=2 / keyint=230 / keyint_min=23 / scenecut=40 / intra_refresh=0 / rc_lookahead=60 / rc=2pass / mbtree=1 / bitrate=9956 / ratetol=1.0 / qcomp=0.60 / qpmin=0 / qpmax=69 / qpstep=4 / cplxblur=20.0 / qblur=0.5 / vbv_maxrate=40000 / vbv_bufsize=30000 / nal_hrd=none / filler=0 / ip_ratio=1.40 / aq=1:1.00
Language                                 : French
Default                                  : Yes
Forced                                   : No

Audio
ID                                       : 2
Format                                   : DTS
Format/Info                              : Digital Theater Systems
Mode                                     : 16
Format settings, Endianness              : Big
Codec ID                                 : A_DTS
Duration                                 : 1h 58mn
Bit rate mode                            : Constant
Bit rate                                 : 768 Kbps
Channel(s)                               : 1 channel
Channel positions                        : Front: C
Sampling rate                            : 48.0 KHz
Bit depth                                : 24 bits
Compression mode                         : Lossy
Stream size                              : 649 MiB (7%)
Language                                 : French
Default                                  : Yes
Forced                                   : No

Text #1
ID                                       : 3
Format                                   : VobSub
Muxing mode                              : zlib
Codec ID                                 : S_VOBSUB
Codec ID/Info                            : Picture based subtitle format used on DVDs
Language                                 : English
Default                                  : Yes
Forced                                   : Yes

Text #2
ID                                       : 4
Format                                   : VobSub
Muxing mode                              : zlib
Codec ID                                 : S_VOBSUB
Codec ID/Info                            : Picture based subtitle format used on DVDs
Title                                    : [Commentary: Jean-Louis Richard & Serge Toubiana]
Language                                 : English
Default                                  : No
Forced                                   : No

Menu
00:00:00.000                             : :00:00:00.000
00:03:16.863                             : :00:03:16.863
00:08:21.418                             : :00:08:21.418
00:10:56.322                             : :00:10:56.322
00:16:45.296                             : :00:16:45.296
00:22:10.788                             : :00:22:10.788
00:28:57.527                             : :00:28:57.527
00:33:16.661                             : :00:33:16.661
00:37:46.931                             : :00:37:46.931
00:45:15.463                             : :00:45:15.463
00:50:20.768                             : :00:50:20.768
00:53:56.525                             : :00:53:56.525
00:57:02.961                             : :00:57:02.961
01:02:09.476                             : :01:02:09.476
01:06:43.249                             : :01:06:43.249
01:12:44.777                             : :01:12:44.777
01:15:21.475                             : :01:15:21.475
01:19:47.992                             : :01:19:47.992
01:31:00.455                             : :01:31:00.455
01:37:41.439                             : :01:37:41.439
01:43:44.718                             : :01:43:44.718
01:52:21.401                             : :01:52:21.401






                                                                                                                                                                                                       

                                                                                                                       
                                                                                                                                                                                                                                                        The.Soft.Skin.1964.FRENCH.1080p.BluRay.x264.DTS-FGT.torrent (89.3 KB, 下载次数: 0)

回复

使用道具 举报

小黑屋|百度云资源论坛 |网站地图

本网站所有资源来自网络,如无意中侵犯了您的权益,请发邮件至 [email protected],立即清除相关链接

GMT+8, 2020-9-28 14:39 , Processed in 0.328194 second(s), 23 queries .

Powered by Discuz! X3.2

© 2001-2013 Comsenz Inc.

快速回复 返回顶部 返回列表