百度云资源论坛

 找回密码
 立即注册
搜索

[犯罪片] 非法入侵/不忠之劫 Trespass.2011.1080p.BluRay.x264.DTS-FGT 7.91GB

[复制链接]
电影首发 发表于 2015-11-13 07:00:00 | 显示全部楼层 |阅读模式

译  名 非法入侵/不忠之劫(港)
片  名 Trespass
年  代 2011
国  家 美国
类  别 犯罪/剧情/惊悚
语  言 英语
上映日期 2011-10-14(美国)
片  长 90分钟
导  演 乔·舒马赫 Joel Schumacher
主  演 尼古拉斯·凯奇 Nicolas Cage
      妮可·基德曼 Nicole Kidman
      凯姆·吉甘戴 Cam Gigandet
      丽亚娜·莱伯拉托 Liana Liberato
      尼可·托托雷拉 Nico Tortorella


简  介


  米勒一家似乎拥有所有人都梦寐以求的生活:豪宅、跑车、美满的家庭。在一个普通的日子,美丽的妻子萨拉(妮可·基德曼 Nicole Kidman 饰)迎接出差回家的丈夫,成功的钻石采购商凯尔(尼古拉斯·凯奇 Nicolas Cage 饰)。凯尔回家的同时青春期的女儿则艾弗瑞(丽亚娜·莱伯拉托 Liana Liberato 饰)瞒着父母偷偷溜出家门去参加朋友家的派对。可是天有不测风云,一伙由四人组成的抢劫团伙闯进米勒家,绑架了夫妇二人欲实施抢劫。艾弗瑞参加完派对回家也不幸撞到了家中正在发生的悲剧。面对丧心病狂的劫匪,米勒一家将怎样解除危机?他们是否会安然无恙?而这看似普通的抢劫背后是否又有不为人知的阴谋和肮脏的秘密?


获奖情况


  第32届金酸莓奖 (2012)
  最差男主角(提名) 尼古拉斯·凯奇


  第2届豆瓣电影鑫像奖 (2012)
  豆渣单元 最渣影片(外语)(提名)




Video
ID                                       : 1
Format                                   : AVC
Format/Info                              : Advanced Video Codec
Format profile                           : [email protected]
Format settings, CABAC                   : Yes
Format settings, ReFrames                : 5 frames
Codec ID                                 : V_MPEG4/ISO/AVC
Duration                                 : 1h 30mn
Bit rate                                 : 11.0 Mbps
Width                                    : 1 920 pixels
Height                                   : 796 pixels
Display aspect ratio                     : 2.40:1
Frame rate mode                          : Constant
Frame rate                               : 23.976 fps
Color space                              : YUV
Chroma subsampling                       : 4:2:0
Bit depth                                : 8 bits
Scan type                                : Progressive
Bits/(Pixel*Frame)                       : 0.301
Stream size                              : 6.80 GiB (86%)
Writing library                          : x264 core 114 r1913 5fd3dce
Encoding settings                        : cabac=1 / ref=5 / deblock=1:-3:-3 / analyse=0x3:0x133 / me=umh / subme=10 / psy=1 / psy_rd=1.00:0.00 / mixed_ref=1 / me_range=48 / chroma_me=1 / trellis=2 / 8x8dct=1 / cqm=0 / deadzone=21,11 / fast_pskip=1 / chroma_qp_offset=-2 / threads=12 / sliced_threads=0 / nr=0 / decimate=0 / interlaced=0 / constrained_intra=0 / bframes=6 / b_pyramid=2 / b_adapt=2 / b_bias=0 / direct=3 / weightb=1 / open_gop=0 / weightp=2 / keyint=250 / keyint_min=23 / scenecut=40 / intra_refresh=0 / rc_lookahead=60 / rc=2pass / mbtree=1 / bitrate=11041 / ratetol=1.0 / qcomp=0.60 / qpmin=0 / qpmax=69 / qpstep=4 / cplxblur=20.0 / qblur=0.5 / vbv_maxrate=50000 / vbv_bufsize=50000 / nal_hrd=none / ip_ratio=1.50 / aq=1:1.00
Language                                 : English
Default                                  : Yes
Forced                                   : No

Audio
ID                                       : 2
Format                                   : DTS
Format/Info                              : Digital Theater Systems
Mode                                     : 16
Format settings, Endianness              : Big
Codec ID                                 : A_DTS
Duration                                 : 1h 30mn
Bit rate mode                            : Constant
Bit rate                                 : 1 510 Kbps
Channel(s)                               : 6 channels
Channel positions                        : Front: L C R, Side: L R, LFE
Sampling rate                            : 48.0 KHz
Bit depth                                : 24 bits
Compression mode                         : Lossy
Delay relative to video                  : 22ms
Stream size                              : 980 MiB (12%)
Language                                 : English
Default                                  : Yes
Forced                                   : No

Text
ID                                       : 3
Format                                   : UTF-8
Codec ID                                 : S_TEXT/UTF8
Codec ID/Info                            : UTF-8 Plain Text
Language                                 : English
Default                                  : Yes
Forced                                   : No

Menu
00:00:00.000                             : en:00:00:00.000
00:05:33.208                             : en:00:05:33.208
00:08:43.106                             : en:00:08:43.106
00:13:39.736                             : en:00:13:39.736
00:19:33.422                             : en:00:19:33.422
00:24:21.752                             : en:00:24:21.752
00:35:11.818                             : en:00:35:11.818
00:41:40.373                             : en:00:41:40.373
00:52:12.713                             : en:00:52:12.713
00:58:43.729                             : en:00:58:43.729
01:04:01.838                             : en:01:04:01.838
01:09:25.036                             : en:01:09:25.036
01:12:39.564                             : en:01:12:39.564
01:16:18.783                             : en:01:16:18.783
01:19:19.129                             : en:01:19:19.129
01:28:39.314                             : en:01:28:39.314





                                                                                                                                                                                                       

                                                                                                                       
                                                                                                                                                                                                                                                        Trespass.2011.1080p.BluRay.x264.DTS-FGT.torrent (79.69 KB, 下载次数: 0)

回复

使用道具 举报

小黑屋|百度云资源论坛 |网站地图

本网站所有资源来自网络,如无意中侵犯了您的权益,请发邮件至 [email protected],立即清除相关链接

GMT+8, 2020-9-26 07:21 , Processed in 0.105029 second(s), 23 queries .

Powered by Discuz! X3.2

© 2001-2013 Comsenz Inc.

快速回复 返回顶部 返回列表