百度云资源论坛

 找回密码
 立即注册
搜索

[剧情片] 随心所欲/我的一生/赖活 Vivre.Sa.Vie.1962.FRENCH.1080p.BluRay.x264.DTS-FGT 6.28GB ...

[复制链接]
电影首发 发表于 2015-11-13 07:00:00 | 显示全部楼层 |阅读模式

译  名 随心所欲/我的一生/赖活
片  名 Vivre sa vie: Film en douze tableaux
年  代 1962
国  家 法国
类  别 剧情
语  言 法语
上映日期 1962-09-20
片  长 80 分钟/Germany: 83 分钟(restored integral version)/Portugal: 83 分钟/UK: 83 分钟/USA: 85 分钟/West Germany: 79 分钟
导  演 让-吕克·戈达尔 Jean-Luc Godard
主  演 安娜·卡里娜 Anna Karina
      Sady Rebbot
      André S. Labarthe
      Guylaine Schlumberger


简  介


  影片讲述了女主人公娜娜(安娜·卡里娜 Anna Karina饰)如何从一名普通售货员走上卖淫道路的悲情一生。娜娜厌倦了售货员的生活,想要成为一名演员,可命运却让她陷入了出卖肉体的色情深渊。她越是深入生命的深刻意义,越是怀疑生活的本来面目。命运辗转,就在她终于遇见她的爱人时,命运又才一次跟她开了场玩笑,死在了皮条客的枪下。看似凌乱毫无关联的章节,充满哲理如呓语般的台词,为了“拯救灵魂而出卖肉体”么?影片抛掷给我们的又岂止是这一个问题。




Video
ID                                       : 1
Format                                   : AVC
Format/Info                              : Advanced Video Codec
Format profile                           : [email protected]
Format settings, CABAC                   : Yes
Format settings, ReFrames                : 5 frames
Codec ID                                 : V_MPEG4/ISO/AVC
Duration                                 : 1h 23mn
Bit rate                                 : 9 956 Kbps
Width                                    : 1 440 pixels
Height                                   : 1 080 pixels
Display aspect ratio                     : 4:3
Frame rate mode                          : Constant
Frame rate                               : 23.976 fps
Color space                              : YUV
Chroma subsampling                       : 4:2:0
Bit depth                                : 8 bits
Scan type                                : Progressive
Bits/(Pixel*Frame)                       : 0.267
Stream size                              : 5.71 GiB (91%)
Writing library                          : x264 core 133 r2334 a3ac64b
Encoding settings                        : cabac=1 / ref=5 / deblock=1:-3:-3 / analyse=0x3:0x133 / me=umh / subme=7 / psy=1 / psy_rd=1.00:0.15 / mixed_ref=1 / me_range=24 / chroma_me=1 / trellis=1 / 8x8dct=1 / cqm=0 / deadzone=21,11 / fast_pskip=0 / chroma_qp_offset=-3 / threads=4 / lookahead_threads=1 / sliced_threads=0 / nr=0 / decimate=1 / interlaced=0 / bluray_compat=0 / constrained_intra=0 / bframes=4 / b_pyramid=2 / b_adapt=2 / b_bias=0 / direct=1 / weightb=1 / open_gop=0 / weightp=2 / keyint=230 / keyint_min=23 / scenecut=40 / intra_refresh=0 / rc_lookahead=50 / rc=2pass / mbtree=1 / bitrate=9956 / ratetol=1.0 / qcomp=0.60 / qpmin=0 / qpmax=69 / qpstep=4 / cplxblur=20.0 / qblur=0.5 / vbv_maxrate=40000 / vbv_bufsize=30000 / nal_hrd=none / ip_ratio=1.40 / aq=1:1.00
Language                                 : French
Default                                  : Yes
Forced                                   : No
Color range                              : Full
Color primaries                          : BT.709
Transfer characteristics                 : BT.709
Matrix coefficients                      : BT.709

Audio
ID                                       : 2
Format                                   : DTS
Format/Info                              : Digital Theater Systems
Mode                                     : 16
Format settings, Endianness              : Big
Codec ID                                 : A_DTS
Duration                                 : 1h 23mn
Bit rate mode                            : Constant
Bit rate                                 : 768 Kbps
Channel(s)                               : 1 channel
Channel positions                        : Front: C
Sampling rate                            : 48.0 KHz
Bit depth                                : 24 bits
Compression mode                         : Lossy
Stream size                              : 461 MiB (7%)
Language                                 : French
Default                                  : Yes
Forced                                   : No

Text
ID                                       : 3
Format                                   : VobSub
Muxing mode                              : zlib
Codec ID                                 : S_VOBSUB
Codec ID/Info                            : Picture based subtitle format used on DVDs
Language                                 : English
Default                                  : Yes
Forced                                   : Yes

Menu
00:00:00.000                             : en:Opening Credits
00:03:02.000                             : en:A bistro - Nana wants to leave Paul - Pinball
00:09:37.869                             : en:The record shop - 2000 francs - Nana lives her life
00:13:09.747                             : en:The concierge - The passion of Joan of Arc - a journalist
00:21:01.010                             : en:The police - Nana is questioned
00:23:56.891                             : en:The outer boulevards - the first man - the hotel room
00:28:41.261                             : en:Yvette - a café in the suburbs - Raoul - machine gun fire
00:37:20.238                             : en:The letter - Raoul again - the Champs Élysées
00:46:13.020                             : en:Afternoons - money - wash-basins - pleasure - hotels
00:50:14.720                             : en:A young man - Nana wonders if she\'s happy
00:57:36.953                             : en:The sidewalk - a man - there\'s no gaiety in happiness
01:03:12.570                             : enlace de Chatelet - the stranger - Nana the unwitting philosopher
01:14:02.438                             : en:The young man again - the oval portrait - Raoul sells Nana




                                                                                                                                                                                                       

                                                                                                                       
                                                                                                                                                                                                                                                        Vivre.Sa.Vie.1962.FRENCH.1080p.BluRay.x264.DTS-FGT.torrent (63.46 KB, 下载次数: 0)

回复

使用道具 举报

小黑屋|百度云资源论坛 |网站地图

本网站所有资源来自网络,如无意中侵犯了您的权益,请发邮件至 [email protected],立即清除相关链接

GMT+8, 2020-9-26 12:30 , Processed in 0.102086 second(s), 23 queries .

Powered by Discuz! X3.2

© 2001-2013 Comsenz Inc.

快速回复 返回顶部 返回列表