百度云资源论坛

 找回密码
 立即注册
搜索

[剧情片] 越轨追击/绝地威龙/玩火/出轨 Derailed.2005.UNRATED.1080p.BluRay.x264.DTS-FGT 11GB ...

[复制链接]
电影首发 发表于 2015-11-13 06:56:00 | 显示全部楼层 |阅读模式

译  名 越轨追击/绝地威龙/玩火/出轨
片  名 Derailed
年  代 2005
国  家 美国/英国
类  别 剧情/惊悚
语  言 英语/法语
上映日期 2005-11-11
片  长 108 分钟/USA: 112 分钟(unrated version)
导  演 米凯尔·哈弗斯特罗姆 Mikael Håfström
主  演 克里夫·欧文 Clive Owen
      詹妮弗·安妮斯顿 Jennifer Aniston
      文森特·卡索 Vincent Cassel
      梅利莎·乔治 Melissa George
      爱迪生·蒂姆林 Addison Timlin


简  介


  十月里一个普通的湿气蒙蒙的日子,广告总监查尔斯(克里夫•欧文 Clive Owen 饰)错过了他的列车,但是在下一列车上,他却因一张车票,结识了金融投资顾问露辛达(詹妮弗•安妮斯顿 Jennifer Aniston 饰),两人给彼此留下了良好的印象。其时查尔斯的女儿身患糖尿病,他不得不抽出更多的精力照顾女儿,而同时事业上却遭遇了挫折,妻子忙于工作,无暇给予他更多情感上的宽慰。之后的日子里,查尔斯与露辛达时常见面,两个各自有家庭的人越发接近,终于在一次约会后来到了宾馆,但这次独处很快被打破,一个名叫拉洛克(文森特•卡索 Vincent Cassel 饰)的陌生人破门而入,用枪威胁他们,实施了抢劫并强暴了露辛达。担心私情暴露的两人无法依靠法律,而拉洛克的勒索却越发频繁,查尔斯决定用自己的力量,去解决这场危机。




Video
ID                                       : 1
Format                                   : AVC
Format/Info                              : Advanced Video Codec
Format profile                           : [email protected]
Format settings, CABAC                   : Yes
Format settings, ReFrames                : 4 frames
Codec ID                                 : V_MPEG4/ISO/AVC
Duration                                 : 1h 52mn
Bit rate                                 : 12.5 Mbps
Width                                    : 1 920 pixels
Height                                   : 800 pixels
Display aspect ratio                     : 2.40:1
Frame rate mode                          : Constant
Frame rate                               : 23.976 fps
Color space                              : YUV
Chroma subsampling                       : 4:2:0
Bit depth                                : 8 bits
Scan type                                : Progressive
Bits/(Pixel*Frame)                       : 0.339
Stream size                              : 9.61 GiB (87%)
Writing library                          : x264 core 125 r2200 999b753
Encoding settings                        : cabac=1 / ref=4 / deblock=1:-3:-3 / analyse=0x3:0x113 / me=umh / subme=10 / psy=1 / psy_rd=1.00:0.00 / mixed_ref=1 / me_range=64 / chroma_me=1 / trellis=2 / 8x8dct=1 / cqm=0 / deadzone=21,11 / fast_pskip=0 / chroma_qp_offset=0 / threads=3 / lookahead_threads=1 / sliced_threads=0 / nr=0 / decimate=1 / interlaced=0 / bluray_compat=0 / constrained_intra=0 / bframes=7 / b_pyramid=2 / b_adapt=2 / b_bias=0 / direct=3 / weightb=1 / open_gop=0 / weightp=2 / keyint=240 / keyint_min=23 / scenecut=40 / intra_refresh=0 / rc_lookahead=90 / rc=2pass / mbtree=1 / bitrate=12500 / ratetol=1.0 / qcomp=0.70 / qpmin=10 / qpmax=51 / qpstep=4 / cplxblur=20.0 / qblur=0.5 / vbv_maxrate=38000 / vbv_bufsize=30000 / nal_hrd=none / ip_ratio=1.40 / aq=1:0.90
Language                                 : English
Default                                  : Yes
Forced                                   : No

Audio
ID                                       : 2
Format                                   : DTS
Format/Info                              : Digital Theater Systems
Mode                                     : 16
Format settings, Endianness              : Big
Codec ID                                 : A_DTS
Duration                                 : 1h 52mn
Bit rate mode                            : Constant
Bit rate                                 : 1 509 Kbps
Channel(s)                               : 6 channels
Channel positions                        : Front: L C R, Side: L R, LFE
Sampling rate                            : 48.0 KHz
Bit depth                                : 24 bits
Compression mode                         : Lossy
Stream size                              : 1.19 GiB (11%)
Language                                 : English
Default                                  : Yes
Forced                                   : No

Text
ID                                       : 3
Format                                   : PGS
Muxing mode                              : zlib
Codec ID                                 : S_HDMV/PGS
Codec ID/Info                            : Picture based subtitle format used on BDs/HD-DVDs
Language                                 : English
Default                                  : Yes
Forced                                   : No

Menu
00:00:00.000                             : en:Chapter 1
00:05:32.415                             : en:Chapter 2
00:08:35.056                             : en:Chapter 3
00:09:07.005                             : en:Chapter 4
00:11:52.670                             : en:Chapter 5
00:12:32.877                             : en:Chapter 6
00:14:27.784                             : en:Chapter 7
00:16:17.643                             : en:Chapter 8
00:19:46.894                             : en:Chapter 9
00:22:16.293                             : en:Chapter 10
00:23:00.796                             : en:Chapter 11
00:24:46.735                             : en:Chapter 12
00:27:02.830                             : en:Chapter 13
00:30:53.727                             : en:Chapter 14
00:38:10.121                             : en:Chapter 15
00:43:20.598                             : en:Chapter 16
00:48:41.377                             : en:Chapter 17
00:49:54.867                             : en:Chapter 18
00:51:20.452                             : en:Chapter 19
00:58:06.525                             : en:Chapter 20
00:59:32.027                             : en:Chapter 21
01:10:18.798                             : en:Chapter 22
01:17:07.790                             : en:Chapter 23
01:21:40.813                             : en:Chapter 24
01:25:09.062                             : en:Chapter 25
01:32:26.124                             : en:Chapter 26
01:36:31.536                             : en:Chapter 27
01:46:19.665                             : en:Chapter 28





                                                                                                                                                                                                       

                                                                                                                       
                                                                                                                                                                                                                                                        Derailed.2005.UNRATED.1080p.BluRay.x264.DTS-FGT.torrent (55.69 KB, 下载次数: 0)

回复

使用道具 举报

小黑屋|百度云资源论坛 |网站地图

本网站所有资源来自网络,如无意中侵犯了您的权益,请发邮件至 [email protected],立即清除相关链接

GMT+8, 2020-9-27 21:29 , Processed in 0.102424 second(s), 23 queries .

Powered by Discuz! X3.2

© 2001-2013 Comsenz Inc.

快速回复 返回顶部 返回列表