百度云资源论坛

 找回密码
 立即注册
搜索

[恐怖片] 死亡季节 Dead.Season.2012.1080p.BluRay.x264.DTS-FGT 4.89GB

[复制链接]
电影首发 发表于 2015-11-13 06:50:00 | 显示全部楼层 |阅读模式

译  名 死亡季节
片  名 Dead Season
年  代 2012
国  家 美国
类  别 恐怖
语  言 英语
上映日期 2012
片  长 85分钟
导  演 Adam Deyoe
主  演 詹姆斯·C·伯恩斯 James C. Burns
      Scott Peat
      Marissa Merrill
      Corsica Wilson
      Marc L. Fusco
      Todd Pritchett
      Grant Beijon
      Kevin O. Matta
      Anna Vawser


简  介


  57周前,居住在匹兹堡的急救人员艾尔维斯(斯科特·皮特 Scott Peat 饰)意外遭遇一个死而复生的尸体,地狱的大门似乎就此打开,恐怖的病毒迅速蔓延,所有被感染的人都变成没有任何生命体征却嗜血如命、狂暴凶残的丧尸,匹兹堡彻底沦为死城。艾尔维斯设法逃离去寻找此前离开自己的妻儿,在一无所获的情况下,他继续前行,途中遇见同样寻求避难的提特(玛丽莎·梅瑞尔 Marissa Merrill 饰)等人。然而这里终究不是长久的避难场所,他们必须想方设法从丧尸的包围中逃出,寻找新的栖息之地。
  死神的身影从未远离,威胁不仅来自丧尸,还有来自早已对死亡司空见惯的人类……




Video
ID                                       : 1
Format                                   : AVC
Format/Info                              : Advanced Video Codec
Format profile                           : [email protected]
Format settings, CABAC                   : Yes
Format settings, ReFrames                : 4 frames
Codec ID                                 : V_MPEG4/ISO/AVC
Duration                                 : 1h 27mn
Bit rate                                 : 6 365 Kbps
Width                                    : 1 920 pixels
Height                                   : 1 080 pixels
Display aspect ratio                     : 16:9
Frame rate mode                          : Constant
Frame rate                               : 23.976 fps
Color space                              : YUV
Chroma subsampling                       : 4:2:0
Bit depth                                : 8 bits
Scan type                                : Progressive
Bits/(Pixel*Frame)                       : 0.128
Stream size                              : 3.88 GiB (79%)
Writing library                          : x264 core 125 r2208 d9d2288
Encoding settings                        : cabac=1 / ref=4 / deblock=1:-1:-1 / analyse=0x3:0x113 / me=umh / subme=7 / psy=1 / psy_rd=1.00:0.15 / mixed_ref=1 / me_range=16 / chroma_me=1 / trellis=1 / 8x8dct=1 / cqm=0 / deadzone=21,11 / fast_pskip=0 / chroma_qp_offset=-3 / threads=18 / lookahead_threads=3 / sliced_threads=0 / nr=0 / decimate=1 / interlaced=0 / bluray_compat=0 / constrained_intra=0 / bframes=3 / b_pyramid=2 / b_adapt=1 / b_bias=0 / direct=1 / weightb=1 / open_gop=0 / weightp=2 / keyint=250 / keyint_min=23 / scenecut=40 / intra_refresh=0 / rc_lookahead=40 / rc=crf / mbtree=1 / crf=20.0 / qcomp=0.60 / qpmin=0 / qpmax=69 / qpstep=4 / ip_ratio=1.40 / aq=1:1.00
Language                                 : English
Default                                  : Yes
Forced                                   : No

Audio
ID                                       : 2
Format                                   : DTS
Format/Info                              : Digital Theater Systems
Mode                                     : 16
Format settings, Endianness              : Big
Codec ID                                 : A_DTS
Duration                                 : 1h 27mn
Bit rate mode                            : Constant
Bit rate                                 : 1 509 Kbps
Channel(s)                               : 6 channels
Channel positions                        : Front: L C R, Side: L R, LFE
Sampling rate                            : 48.0 KHz
Bit depth                                : 24 bits
Compression mode                         : Lossy
Stream size                              : 942 MiB (19%)
Language                                 : English
Default                                  : Yes
Forced                                   : No





                                                                                                                                                                                                       

                                                                                                                       
                                                                                                                                                                                                                                                        Dead.Season.2012.1080p.BluRay.x264.DTS-FGT.torrent (98.53 KB, 下载次数: 0)

回复

使用道具 举报

小黑屋|百度云资源论坛 |网站地图

本网站所有资源来自网络,如无意中侵犯了您的权益,请发邮件至 [email protected],立即清除相关链接

GMT+8, 2020-12-5 06:44 , Processed in 0.112300 second(s), 23 queries .

Powered by Discuz! X3.2

© 2001-2013 Comsenz Inc.

快速回复 返回顶部 返回列表