百度云资源论坛

 找回密码
 立即注册
搜索

[其他] 克拉高谷 Korengal.2014.DOCU.1080p.BluRay.x264-SPLiTSViLLE 6.55GB

[复制链接]
电影首发 发表于 2015-11-13 06:50:00 | 显示全部楼层 |阅读模式

译  名 克拉高谷
片  名 Korengal
年  代 2014
国  家 美国
类  别 纪录片
语  言 英语/阿富汗语
上映日期 2014-05-17(美国)
片  长 84分钟
导  演 Sebastian Junger
主  演 Juan 'Doc Restrepo
      Dan Kearney
      Misha Pemble-Belkin


简  介


  Korengal picks up where Restrepo left off; the same men, the same valley, the same commanders, but a very different look at the experience of war.




Video
ID                                       : 1
Format                                   : AVC
Format/Info                              : Advanced Video Codec
Format profile                           : [email protected]
Format settings, CABAC                   : Yes
Format settings, ReFrames                : 4 frames
Codec ID                                 : V_MPEG4/ISO/AVC
Duration                                 : 1h 24mn
Bit rate                                 : 9 607 Kbps
Width                                    : 1 920 pixels
Height                                   : 1 080 pixels
Display aspect ratio                     : 16:9
Frame rate mode                          : Constant
Frame rate                               : 23.976 fps
Color space                              : YUV
Chroma subsampling                       : 4:2:0
Bit depth                                : 8 bits
Scan type                                : Progressive
Bits/(Pixel*Frame)                       : 0.193
Stream size                              : 5.53 GiB (84%)
Writing library                          : x264 core 142 r2431 ac76440
Encoding settings                        : cabac=1 / ref=4 / deblock=1:0:0 / analyse=0x3:0x133 / me=umh / subme=8 / psy=1 / psy_rd=1.00:0.00 / mixed_ref=1 / me_range=16 / chroma_me=1 / trellis=1 / 8x8dct=1 / cqm=0 / deadzone=21,11 / fast_pskip=0 / chroma_qp_offset=-2 / threads=12 / lookahead_threads=2 / sliced_threads=0 / nr=0 / decimate=1 / interlaced=0 / bluray_compat=0 / constrained_intra=0 / bframes=3 / b_pyramid=2 / b_adapt=2 / b_bias=0 / direct=3 / weightb=1 / open_gop=0 / weightp=2 / keyint=250 / keyint_min=23 / scenecut=40 / intra_refresh=0 / rc_lookahead=50 / rc=2pass / mbtree=1 / bitrate=9607 / ratetol=1.0 / qcomp=0.60 / qpmin=0 / qpmax=69 / qpstep=4 / cplxblur=20.0 / qblur=0.5 / ip_ratio=1.40 / aq=1:1.00
Language                                 : English
Default                                  : Yes
Forced                                   : No

Audio
ID                                       : 2
Format                                   : DTS
Format/Info                              : Digital Theater Systems
Mode                                     : 16
Format settings, Endianness              : Big
Codec ID                                 : A_DTS
Duration                                 : 1h 24mn
Bit rate mode                            : Constant
Bit rate                                 : 1 509 Kbps
Channel(s)                               : 6 channels
Channel positions                        : Front: L C R, Side: L R, LFE
Sampling rate                            : 48.0 KHz
Bit depth                                : 24 bits
Compression mode                         : Lossy
Stream size                              : 912 MiB (14%)
Language                                 : English
Default                                  : Yes
Forced                                   : No

Menu
00:00:00.000                             : en:00:00:00.000
00:08:20.875                             : en:00:08:20.875
00:16:35.745                             : en:00:16:35.745
00:25:24.940                             : en:00:25:24.940
00:33:38.516                             : en:00:33:38.516
00:40:01.482                             : en:00:40:01.482
00:46:35.334                             : en:00:46:35.334
00:52:19.053                             : en:00:52:19.053
00:59:47.793                             : en:00:59:47.793
01:09:06.225                             : en:01:09:06.225
01:15:09.922                             : en:01:15:09.922
01:21:18.665                             : en:01:21:18.665





                                                                                                                                                                                                       

                                                                                                                       
                                                                                                                                                                                                                                                        Korengal.2014.DOCU.1080p.BluRay.x264-SPLiTSViLLE.torrent (66.14 KB, 下载次数: 0)

回复

使用道具 举报

小黑屋|百度云资源论坛 |网站地图

本网站所有资源来自网络,如无意中侵犯了您的权益,请发邮件至 [email protected],立即清除相关链接

GMT+8, 2020-11-29 07:02 , Processed in 0.098641 second(s), 23 queries .

Powered by Discuz! X3.2

© 2001-2013 Comsenz Inc.

快速回复 返回顶部 返回列表