百度云资源论坛

 找回密码
 立即注册
搜索

[恐怖片] 夜狼 Night.Wolf.2010.1080p.BluRay.x264.DTS-FGT 4.54GB

[复制链接]
电影首发 发表于 2015-11-13 06:50:00 | 显示全部楼层 |阅读模式

译  名 夜狼
片  名 Night Wolf
年  代 2012
国  家 英国
类  别 恐怖
语  言 英语
导  演 Jonathan Glendening
主  演 吉玛·阿金森 Gemma Atkinson
      Joshua Bowman
      Isabella Calthorpe


简  介


  伸手不见五指的黑夜,一辆汽车蜿蜒盘旋在乡间小路上。那是名叫莎拉·泰勒(伊莎贝拉·凯瑟尔佩 Isabella Calthorpe 饰)的女孩,此前她已在美国闯荡多年,如今在事业小有成就之际总算返回了久别的家乡。她的家地处偏远乡村,是一幢有着悠久历史的古老别墅,周围杳无人烟。在和父亲邓肯(Simon MacCorkindale 饰)寒暄过后,她来到仓库寻找当年的玩伴艾米莉(盖玛·阿金斯 Gemma Atkinson 饰)、加里(汤姆·费尔顿 饰)、道格(约叔华·伯曼 Joshua Bowman 饰)、斯蒂芬(皮特·加迪亚特 Peter Gadiot 饰)以及查理(加布里尔·汤姆森 Gabriel Thomson 饰),他们正等待着莎拉一同狂欢。
  夜深人静,这群无所顾忌的年轻人决定进入别墅冒险,却不知嗜血的怪物等待着猎物的到来,血腥之夜拉开了序幕……





Video
ID                                       : 1
Format                                   : AVC
Format/Info                              : Advanced Video Codec
Format profile                           : [email protected]
Format settings, CABAC                   : Yes
Format settings, ReFrames                : 4 frames
Codec ID                                 : V_MPEG4/ISO/AVC
Duration                                 : 1h 24mn
Bit rate                                 : 6 004 Kbps
Width                                    : 1 920 pixels
Height                                   : 1 080 pixels
Display aspect ratio                     : 16:9
Frame rate mode                          : Constant
Frame rate                               : 24.000 fps
Color space                              : YUV
Chroma subsampling                       : 4:2:0
Bit depth                                : 8 bits
Scan type                                : Progressive
Bits/(Pixel*Frame)                       : 0.121
Stream size                              : 3.55 GiB (78%)
Writing library                          : x264 core 129 r2245 bc13772
Encoding settings                        : cabac=1 / ref=4 / deblock=1:-1:-1 / analyse=0x3:0x113 / me=umh / subme=7 / psy=1 / psy_rd=1.00:0.15 / mixed_ref=1 / me_range=16 / chroma_me=1 / trellis=1 / 8x8dct=1 / cqm=0 / deadzone=21,11 / fast_pskip=0 / chroma_qp_offset=-3 / threads=18 / lookahead_threads=3 / sliced_threads=0 / nr=0 / decimate=1 / interlaced=0 / bluray_compat=0 / constrained_intra=0 / bframes=3 / b_pyramid=2 / b_adapt=1 / b_bias=0 / direct=1 / weightb=1 / open_gop=0 / weightp=2 / keyint=250 / keyint_min=24 / scenecut=40 / intra_refresh=0 / rc_lookahead=40 / rc=crf / mbtree=1 / crf=20.0 / qcomp=0.60 / qpmin=0 / qpmax=69 / qpstep=4 / ip_ratio=1.40 / aq=1:1.00
Language                                 : English
Default                                  : Yes
Forced                                   : No

Audio
ID                                       : 2
Format                                   : DTS
Format/Info                              : Digital Theater Systems
Mode                                     : 16
Format settings, Endianness              : Big
Codec ID                                 : A_DTS
Duration                                 : 1h 24mn
Bit rate mode                            : Constant
Bit rate                                 : 1 509 Kbps
Channel(s)                               : 6 channels
Channel positions                        : Front: L C R, Side: L R, LFE
Sampling rate                            : 48.0 KHz
Bit depth                                : 24 bits
Compression mode                         : Lossy
Stream size                              : 914 MiB (20%)
Language                                 : English
Default                                  : Yes
Forced                                   : No






                                                                                                                                                                                                       

                                                                                                                       
                                                                                                                                                                                                                                                        Night.Wolf.2010.1080p.BluRay.x264.DTS-FGT.torrent (91.33 KB, 下载次数: 0)

回复

使用道具 举报

小黑屋|百度云资源论坛 |网站地图

本网站所有资源来自网络,如无意中侵犯了您的权益,请发邮件至 [email protected],立即清除相关链接

GMT+8, 2020-9-27 14:30 , Processed in 0.098518 second(s), 23 queries .

Powered by Discuz! X3.2

© 2001-2013 Comsenz Inc.

快速回复 返回顶部 返回列表