百度云资源论坛

 找回密码
 立即注册
搜索

雷斯特雷波 Restrepo.2010.1080p.BluRay.x264-BRMP 7.95GB

[复制链接]
电影首发 发表于 2015-11-13 06:50:00 | 显示全部楼层 |阅读模式

译  名 雷斯特雷波
片  名 Restrepo
年  代 2010
国  家 美国
类  别 纪录片/战争
语  言 英语
上映日期 2010-07-02
片  长 93分钟
导  演 蒂姆·赫瑟林顿 Tim Hetherington / 塞巴斯蒂安·荣格尔 Sebastian Junger


简  介


  阿富汗战争爆发,大批美国年轻人被派往有如炼狱一般的战场。他们为了所谓的理想和正义捐弃生命,同时屠杀生命。美军173空降旅某野战排进驻库伦加尔山谷,这里据说隐藏着众多塔利班武装分子,也注定成为战火最为激烈的地带。在一次交战中,名为约翰•雷斯特雷波的士兵牺牲,亲密的战友们难以忘怀,最终将一个攻下的据点以雷斯特雷波的名字命名。他们以正义之名战斗,却无法得到当地民众的支持。接下来的一年里,士兵们的友情愈加深厚,而战争和死亡的阴影则时刻伴随左右……
  本片荣获2010年圣丹斯电影节评委会纪录片大奖。


获奖情况


  第83届奥斯卡金像奖 (2011)
  最佳纪录长片(提名) 蒂姆·赫瑟林顿 / 塞巴斯蒂安·荣格尔


  第9届华盛顿影评人协会奖 (2010)
  最佳纪录片(提名)


  第23届芝加哥影评人协会奖 (2010)
  最佳纪录片(提名)


  第10届凤凰城影评人协会奖 (2010)
  最佳纪录片




Video
ID                                       : 1
Format                                   : AVC
Format/Info                              : Advanced Video Codec
Format profile                           : [email protected]
Format settings, CABAC                   : Yes
Format settings, ReFrames                : 4 frames
Codec ID                                 : V_MPEG4/ISO/AVC
Duration                                 : 1h 33mn
Bit rate                                 : 11.7 Mbps
Width                                    : 1 920 pixels
Height                                   : 1 080 pixels
Display aspect ratio                     : 16:9
Frame rate mode                          : Constant
Frame rate                               : 29.970 fps
Color space                              : YUV
Chroma subsampling                       : 4:2:0
Bit depth                                : 8 bits
Scan type                                : Progressive
Bits/(Pixel*Frame)                       : 0.188
Stream size                              : 7.50 GiB (94%)
Writing library                          : x264 core 110 r1804 e89c4cf
Encoding settings                        : cabac=1 / ref=4 / deblock=1:0:0 / analyse=0x3:0x133 / me=umh / subme=7 / psy=1 / psy_rd=1.00:0.00 / mixed_ref=1 / me_range=16 / chroma_me=1 / trellis=1 / 8x8dct=1 / cqm=0 / deadzone=21,11 / fast_pskip=0 / chroma_qp_offset=-2 / threads=12 / sliced_threads=0 / nr=0 / decimate=1 / interlaced=0 / constrained_intra=0 / bframes=3 / b_pyramid=2 / b_adapt=1 / b_bias=0 / direct=1 / weightb=1 / open_gop=0 / weightp=2 / keyint=250 / keyint_min=25 / scenecut=40 / intra_refresh=0 / rc_lookahead=40 / rc=2pass / mbtree=1 / bitrate=11695 / ratetol=1.0 / qcomp=0.60 / qpmin=10 / qpmax=51 / qpstep=4 / cplxblur=20.0 / qblur=0.5 / ip_ratio=1.40 / aq=1:1.00
Language                                 : English
Default                                  : Yes
Forced                                   : No

Audio
ID                                       : 2
Format                                   : AC-3
Format/Info                              : Audio Coding 3
Mode extension                           : CM (complete main)
Format settings, Endianness              : Big
Codec ID                                 : A_AC3
Duration                                 : 1h 33mn
Bit rate mode                            : Constant
Bit rate                                 : 448 Kbps
Channel(s)                               : 6 channels
Channel positions                        : Front: L C R, Side: L R, LFE
Sampling rate                            : 48.0 KHz
Compression mode                         : Lossy
Stream size                              : 300 MiB (4%)
Title                                    : English 5.1
Language                                 : English
Default                                  : Yes
Forced                                   : No

Text
ID                                       : 3
Format                                   : UTF-8
Codec ID                                 : S_TEXT/UTF8
Codec ID/Info                            : UTF-8 Plain Text
Title                                    : English
Language                                 : English
Default                                  : No
Forced                                   : No





                                                                                                                                                                                                       

                                                                                                                       
                                                                                                                                                                                                                                                        Restrepo.2010.1080p.BluRay.x264-BRMP.torrent (80.06 KB, 下载次数: 0)

回复

使用道具 举报

小黑屋|百度云资源论坛 |网站地图

本网站所有资源来自网络,如无意中侵犯了您的权益,请发邮件至 [email protected],立即清除相关链接

GMT+8, 2020-9-30 11:48 , Processed in 0.111304 second(s), 23 queries .

Powered by Discuz! X3.2

© 2001-2013 Comsenz Inc.

快速回复 返回顶部 返回列表