百度云资源论坛

 找回密码
 立即注册
搜索

[剧情片] 日落大道/红楼金粉 Sunset.Blvd.1950.1080p.BluRay.x264.DD2.0-FGT 6.38GB

[复制链接]
电影首发 发表于 2015-11-13 06:50:00 | 显示全部楼层 |阅读模式

译  名 日落大道/红楼金粉
片  名 Sunset Blvd.
年  代 1950
国  家 美国
类  别 剧情/黑色电影
语  言 英语
上映日期 1950-08-10
片  长 110分钟
导  演 比利·怀德 Billy Wilder
主  演 威廉·霍尔登 William Holden
      葛洛丽亚·斯旺森 Gloria Swanson
      埃里克·冯·施特罗海姆 Erich von Stroheim
      南希·奥尔森 Nancy Olson
      弗雷德·克拉克 Fred Clark
      巴斯特·基顿 Buster Keaton


简  介


  过气演员诺玛(葛洛丽亚·斯旺森 Gloria Swanson 饰)已经将近50岁,曾经的风华绝代正在她居住的荒废豪宅里慢慢凋谢,身边只有好友马克思(埃里克·施特罗海姆Erich von Stroheim)伺奉。她没放弃重燃光辉的梦想,《莎乐美》的剧本正待编写,而逃避债务逃至此地的没落编剧乔(威廉·霍尔登 William Holden饰),正是这项事业的最佳候选。诺玛收留他住下,给他提供舒适的环境写作,并慢慢的倾心于他。但是,乔并不能接受这个青春已逝的妇人。他拒绝了她,并转过身和另一个美丽的女子谋划新的剧本,他们相爱,打得火热。
  诺玛得知了乔的“背叛”,她卑微地哀求他,却动摇不了他渐行渐远的心,诺玛终于举起枪对准正要离开的乔。


获奖情况


  第23届奥斯卡金像奖 (1951)
  最佳影片(提名)
  最佳导演(提名) 比利·怀德
  最佳男主角(提名) 威廉·霍尔登
  最佳女主角(提名) 葛洛丽亚·斯旺森
  最佳男配角(提名) 埃里克·冯·施特罗海姆
  最佳女配角(提名) 南希·奥尔森
  最佳故事/编剧 小D.M.马什曼 / 比利·怀德 / 查尔斯·布拉克特
  黑白片最佳摄影(提名) John F. Seitz
  最佳剪辑(提名) Arthur P. Schmidt / Doane Harrison
  黑白片最佳艺术指导和布景 汉斯·德雷尔 / 萨姆·库默 / John Meehan / Ray Moyer
  剧情/喜剧片最佳配乐 弗朗茨·沃克斯曼



Video
ID                                       : 1
Format                                   : AVC
Format/Info                              : Advanced Video Codec
Format profile                           : [email protected]
Format settings, CABAC                   : Yes
Format settings, ReFrames                : 4 frames
Codec ID                                 : V_MPEG4/ISO/AVC
Duration                                 : 1h 50mn
Bit rate                                 : 8 059 Kbps
Width                                    : 1 472 pixels
Height                                   : 1 080 pixels
Display aspect ratio                     : 4:3
Frame rate mode                          : Constant
Frame rate                               : 23.976 fps
Color space                              : YUV
Chroma subsampling                       : 4:2:0
Bit depth                                : 8 bits
Scan type                                : Progressive
Bits/(Pixel*Frame)                       : 0.211
Stream size                              : 6.08 GiB (95%)
Writing library                          : x264 core 133 r2334 a3ac64b
Encoding settings                        : cabac=1 / ref=4 / deblock=1:-1:-1 / analyse=0x3:0x133 / me=umh / subme=7 / psy=1 / psy_rd=1.00:0.15 / mixed_ref=1 / me_range=16 / chroma_me=1 / trellis=1 / 8x8dct=1 / cqm=0 / deadzone=21,11 / fast_pskip=0 / chroma_qp_offset=-3 / threads=12 / lookahead_threads=2 / sliced_threads=0 / nr=0 / decimate=1 / interlaced=0 / bluray_compat=0 / constrained_intra=0 / bframes=3 / b_pyramid=2 / b_adapt=1 / b_bias=0 / direct=3 / weightb=1 / open_gop=0 / weightp=2 / keyint=240 / keyint_min=23 / scenecut=40 / intra_refresh=0 / rc_lookahead=40 / rc=2pass / mbtree=1 / bitrate=8059 / ratetol=1.0 / qcomp=0.60 / qpmin=0 / qpmax=69 / qpstep=4 / cplxblur=20.0 / qblur=0.5 / vbv_maxrate=50000 / vbv_bufsize=62500 / nal_hrd=none / ip_ratio=1.40 / aq=1:1.00
Language                                 : Finnish
Default                                  : Yes
Forced                                   : No

Audio
ID                                       : 2
Format                                   : AC-3
Format/Info                              : Audio Coding 3
Mode extension                           : CM (complete main)
Format settings, Endianness              : Big
Codec ID                                 : A_AC3
Duration                                 : 1h 50mn
Bit rate mode                            : Constant
Bit rate                                 : 224 Kbps
Channel(s)                               : 2 channels
Channel positions                        : Front: L R
Sampling rate                            : 48.0 KHz
Compression mode                         : Lossy
Stream size                              : 177 MiB (3%)
Title                                    : AC3
Language                                 : English
Default                                  : No
Forced                                   : No




                                                                                                                                                                                                       

                                                                                                                       
                                                                                                                                                                                                                                                        Sunset.Blvd.1950.1080p.BluRay.x264.DD2.0-FGT.torrent (64.42 KB, 下载次数: 0)

回复

使用道具 举报

小黑屋|百度云资源论坛 |网站地图

本网站所有资源来自网络,如无意中侵犯了您的权益,请发邮件至 [email protected],立即清除相关链接

GMT+8, 2020-9-24 06:33 , Processed in 0.106779 second(s), 23 queries .

Powered by Discuz! X3.2

© 2001-2013 Comsenz Inc.

快速回复 返回顶部 返回列表