百度云资源论坛

 找回密码
 立即注册
搜索

[剧情片] 浩劫余生 The.Far.Side.of.Jericho.2006.1080p.BluRay.x264.DTS-FGT 10.98GB

[复制链接]
电影首发 发表于 2015-11-13 06:50:00 | 显示全部楼层 |阅读模式

译  名 浩劫余生
片  名 The Far Side of Jericho
年  代 2006
国  家 美国
类  别 西部
语  言 英语
上映日期 2007-08-21
片  长 USA: 99 分钟
导  演 蒂姆·亨特 Tim Hunter
主  演 帕特里克·博金 Patrick Bergin
      劳伦斯·普莱斯曼 Lawrence Pressman
      詹姆斯·盖蒙 James Gammon


简  介


  在广漠的西部地区,三个寡妇被迫背井离乡,从而结成了一个搭档团伙。她们为了寻找自己丈夫埋藏的财宝结伴而行。一路上她们遇到了警察的追捕
  和受到了流氓们的骚扰。在危险的路途中,她们还遇上了印第安人,Pinkerton的代理人。。。。。。女人们为了点亮自己命运的道路,必须鼓起
  勇气去学着相信,去学着关怀,更要学会为了生存了厮杀




Video
ID                                       : 1
Format                                   : AVC
Format/Info                              : Advanced Video Codec
Format profile                           : [email protected]
Format settings, CABAC                   : Yes
Format settings, ReFrames                : 4 frames
Codec ID                                 : V_MPEG4/ISO/AVC
Duration                                 : 1h 42mn
Bit rate                                 : 13.5 Mbps
Width                                    : 1 920 pixels
Height                                   : 1 080 pixels
Display aspect ratio                     : 16:9
Frame rate mode                          : Constant
Frame rate                               : 23.976 fps
Color space                              : YUV
Chroma subsampling                       : 4:2:0
Bit depth                                : 8 bits
Scan type                                : Progressive
Bits/(Pixel*Frame)                       : 0.272
Stream size                              : 9.68 GiB (88%)
Writing library                          : x264 core 104 r1703 cd21d05
Encoding settings                        : cabac=1 / ref=5 / deblock=1:0:0 / analyse=0x3:0x133 / me=umh / subme=7 / psy=1 / psy_rd=1.00:0.00 / mixed_ref=1 / me_range=16 / chroma_me=1 / trellis=1 / 8x8dct=1 / cqm=0 / deadzone=21,11 / fast_pskip=0 / chroma_qp_offset=-2 / threads=6 / sliced_threads=0 / nr=0 / decimate=1 / interlaced=0 / constrained_intra=0 / bframes=3 / b_pyramid=1 / b_adapt=1 / b_bias=0 / direct=1 / weightb=1 / open_gop=0 / weightp=2 / keyint=250 / keyint_min=23 / scenecut=40 / intra_refresh=0 / rc_lookahead=40 / rc=crf / mbtree=1 / crf=20.0 / qcomp=0.60 / qpmin=10 / qpmax=51 / qpstep=4 / ip_ratio=1.40 / aq=1:1.00
Language                                 : English
Default                                  : Yes
Forced                                   : No

Audio
ID                                       : 2
Format                                   : DTS
Format/Info                              : Digital Theater Systems
Mode                                     : 16
Format settings, Endianness              : Big
Codec ID                                 : A_DTS
Duration                                 : 1h 42mn
Bit rate mode                            : Constant
Bit rate                                 : 1 509 Kbps
Channel(s)                               : 6 channels
Channel positions                        : Front: L C R, Side: L R, LFE
Sampling rate                            : 48.0 KHz
Bit depth                                : 16 bits
Compression mode                         : Lossy
Stream size                              : 1.08 GiB (10%)
Language                                 : English
Default                                  : Yes
Forced                                   : No






                                                                                                                                                                                                       

                                                                                                                       
                                                                                                                                                                                                                                                        The.Far.Side.of.Jericho.2006.1080p.BluRay.x264.DTS-FGT.torrent (55.55 KB, 下载次数: 0)

回复

使用道具 举报

小黑屋|百度云资源论坛 |网站地图

本网站所有资源来自网络,如无意中侵犯了您的权益,请发邮件至 [email protected],立即清除相关链接

GMT+8, 2020-9-30 12:51 , Processed in 0.104503 second(s), 23 queries .

Powered by Discuz! X3.2

© 2001-2013 Comsenz Inc.

快速回复 返回顶部 返回列表