百度云资源论坛

 找回密码
 立即注册
搜索

[犯罪片] 大盗铁金刚/安德森的录音带 The.Anderson.Tapes.1971.1080p.BluRay.x264-PSYCHD 7.65G ...

[复制链接]
电影首发 发表于 2015-11-13 06:50:00 | 显示全部楼层 |阅读模式

译  名 大盗铁金刚/安德森的录音带
片  名 The Anderson Tapes
年  代 1971
国  家 美国
类  别 犯罪/剧情/惊悚
语  言 英语
上映日期 1971-06-17
片  长 99 分钟
导  演 西德尼·吕美特 Sidney Lumet
主  演 肖恩·康纳利 Sean Connery
      黛恩·坎农 Dyan Cannon
      马丁·鲍尔萨姆 Martin Balsam
      阿兰·金 Alan King
      克里斯托弗·沃肯 Christopher Walken


简  介


  一个名叫安德森公爵的飞天大盗刚刚从监狱里释放出来。他已经在监狱里待了十年了,但他的雄心并没有泯灭。他出来之后找到他以前的女友英格丽,而英格丽现在住在一幢豪华公寓里,安德森也暂时住在这里。没多久,安德森就发现住在这栋公寓里人还都挺有钱,于是就打起了这里的主意。而且,他觉得小的还不过瘾,所以打算打劫整幢大楼,以震声威。安德森先是召集旧日的同伙,等到人差不多了,便开始了周密的计划。某日,他们一起火速洗劫了整个大厦。似乎有点过于轻而易举了,安德森信心倍增。但毕竟距离安德森上次作案已经十年了,时代大不同了。


Video
ID                                       : 1
Format                                   : AVC
Format/Info                              : Advanced Video Codec
Format profile                           : [email protected]
Format settings, CABAC                   : Yes
Format settings, ReFrames                : 4 frames
Codec ID                                 : V_MPEG4/ISO/AVC
Duration                                 : 1h 38mn
Bit rate                                 : 10.3 Mbps
Width                                    : 1 920 pixels
Height                                   : 1 080 pixels
Display aspect ratio                     : 16:9
Frame rate mode                          : Constant
Frame rate                               : 23.976 fps
Color space                              : YUV
Chroma subsampling                       : 4:2:0
Bit depth                                : 8 bits
Scan type                                : Progressive
Bits/(Pixel*Frame)                       : 0.207
Stream size                              : 6.97 GiB (91%)
Writing library                          : x264 core 132 r2310 76a5c3a
Encoding settings                        : cabac=1 / ref=4 / deblock=1:-3:-3 / analyse=0x3:0x113 / me=umh / subme=8 / psy=1 / psy_rd=1.00:0.00 / mixed_ref=1 / me_range=16 / chroma_me=1 / trellis=1 / 8x8dct=1 / cqm=0 / deadzone=21,11 / fast_pskip=1 / chroma_qp_offset=-2 / threads=12 / lookahead_threads=2 / sliced_threads=0 / nr=0 / decimate=1 / interlaced=0 / bluray_compat=0 / constrained_intra=0 / bframes=3 / b_pyramid=2 / b_adapt=2 / b_bias=0 / direct=3 / weightb=1 / open_gop=0 / weightp=2 / keyint=240 / keyint_min=24 / scenecut=40 / intra_refresh=0 / rc_lookahead=50 / rc=2pass / mbtree=1 / bitrate=10312 / ratetol=1.0 / qcomp=0.60 / qpmin=0 / qpmax=69 / qpstep=4 / cplxblur=20.0 / qblur=0.5 / ip_ratio=1.40 / aq=1:1.00
Language                                 : English
Default                                  : Yes
Forced                                   : No

Audio
ID                                       : 2
Format                                   : DTS
Format/Info                              : Digital Theater Systems
Mode                                     : 16
Format settings, Endianness              : Big
Codec ID                                 : A_DTS
Duration                                 : 1h 38mn
Bit rate mode                            : Constant
Bit rate                                 : 768 Kbps
Channel(s)                               : 6 channels
Channel(s)_Original                      : 2 channels
Channel positions                        : Front: L R
Sampling rate                            : 48.0 KHz
Bit depth                                : 24 bits
Compression mode                         : Lossy
Stream size                              : 543 MiB (7%)
Language                                 : English
Default                                  : Yes
Forced                                   : No

Text
ID                                       : 3
Format                                   : UTF-8
Codec ID                                 : S_TEXT/UTF8
Codec ID/Info                            : UTF-8 Plain Text
Language                                 : English
Default                                  : No
Forced                                   : No

Menu
00:00:00.000                             : en:00:00:00.000
00:08:13.827                             : en:00:08:13.827
00:15:53.953                             : en:00:15:53.953
00:24:21.001                             : en:00:24:21.001
00:31:35.602                             : en:00:31:35.602
00:39:42.213                             : en:00:39:42.213
00:47:58.584                             : en:00:47:58.584
00:58:54.531                             : en:00:58:54.531
01:03:38.732                             : en:01:03:38.732
01:09:44.639                             : en:01:09:44.639
01:18:26.744                             : en:01:18:26.744
01:24:05.040                             : en:01:24:05.040





                                                                                                                                                                                                       

                                                                                                                       
                                                                                                                                                                                                                                                        The.Anderson.Tapes.1971.1080p.BluRay.x264-PSYCHD.torrent (77.14 KB, 下载次数: 0)

回复

使用道具 举报

小黑屋|百度云资源论坛 |网站地图

本网站所有资源来自网络,如无意中侵犯了您的权益,请发邮件至 [email protected],立即清除相关链接

GMT+8, 2020-9-30 11:15 , Processed in 0.112511 second(s), 23 queries .

Powered by Discuz! X3.2

© 2001-2013 Comsenz Inc.

快速回复 返回顶部 返回列表