百度云资源论坛

 找回密码
 立即注册
搜索

九层妖塔 Chronicles.of.the.Ghostly.Tribe.2015.3D.BluRay.Half.SBS.x264.AAC-SeeHD ...

[复制链接]
电影首发 发表于 2015-11-12 09:24:00 | 显示全部楼层 |阅读模式
内嵌中字


译  名  九层妖塔 / 陆川版鬼吹灯 / 鬼吹灯之九层妖塔 / 吹灯传说之精绝古城 / 鬼吹灯
片  名 Chronicles of the Ghostly Tribe
年  代 2015-09-30(中国大陆)
国  家 中国大陆   
类  别 动作 / 惊悚 / 冒险
语  言 汉语普通话
字  幕  中文/英文   
官方小站: 《九层妖塔》专题页面
文件格式 x264 + AAC
视频尺寸 1920 x 800
文件大小 1CD 4.22GiB
片  长 1h 58mn
导  演 陆川  Chuan Lu
主  演  赵又廷  Mark Chao   胡八一
                    姚晨  Chen Yao   Shirley杨
                    冯粒  Li Feng   王胖子
                    李晨  Chen Li   王馆长
                    唐嫣  Yan Tang   曹维维
                    凤小岳  Rhydian Vaughan   陈东
                    李光洁  Guangjie Li   韩九阳
                    王庆祥  Qingxiang Wang   杨教授
                    王德顺  Deshun Wang   安立满
                    吴军  Jun Wu
                    林宁   Ning Lin
   
简  介   

      1979年,昆仑山发生神秘生物骸骨,由胡八一(赵又廷 饰)率领的探险队深入昆仑山腹地,寻找有关古生物遗迹的更多秘密,却不料在这个过程中遭到不同神秘生物的轮番攻击,并意外坠入九层妖塔,除胡八一外,一行人生死成谜。
胡八一退伍后回到北京,重逢了发小王凯旋(冯粒 饰),并在神秘人(李晨 饰)与科考队(凤小岳、唐嫣、李光洁 饰)两股力量的夹缝中重新踏上了探寻未知文明的征程,途中与Shirley杨(姚晨 饰)邂逅,熟识的面孔唤醒了他身处探险队那段日子的记忆。此行凶险,在还没来得及搞清楚Shirley的真实身份之际,胡八一、Shirley、王胖子率领一行人便在王子墓、石油小镇等地遭到不明生物的轰炸,这里所发生的一切再度指向九层妖塔,而这次等待他们的,将是一个尘封已千年的未解之谜……


General
Format                         : MPEG-4
Format profile                 : Base Media
Codec ID                       : isom
File size                      : 4.22 GiB
Duration                       : 1h 58mn
Overall bit rate               : 5 121 Kbps
Writing application            : Lavf56.15.102

Video
ID                             : 1
Format                         : AVC
Format/Info                    : Advanced Video Codec
Format profile                 : [email protected]
Format settings, CABAC         : Yes
Format settings, ReFrames      : 4 frames
Codec ID                       : avc1
Codec ID/Info                  : Advanced Video Coding
Duration                       : 1h 58mn
Bit rate                       : 4 981 Kbps
Width                          : 1 920 pixels
Height                         : 800 pixels
Display aspect ratio           : 2.40:1
Frame rate mode                : Constant
Frame rate                     : 24.000 fps
Color space                    : YUV
Chroma subsampling             : 4:2:0
Bit depth                      : 8 bits
Scan type                      : Progressive
Bits/(Pixel*Frame)             : 0.135
Stream size                    : 4.11 GiB (97%)
Writing library                : Provided by www.letv.com  :: H.264/MPEG-4 AVC codec -V 1.6.08

Audio
ID                             : 2
Format                         : AAC
Format/Info                    : Advanced Audio Codec
Format profile                 : LC
Codec ID                       : 40
Duration                       : 1h 58mn
Bit rate mode                  : Constant
Bit rate                       : 128 Kbps
Channel(s)                     : 2 channels
Channel positions              : Front: L R
Sampling rate                  : 44.1 KHz
Compression mode               : Lossy
Stream size                    : 108 MiB (2%)

  
                                                                                                                                                                                                       

                                                                                                                       
                                                                                                                                                                                                                                                        Chronicles of the Ghostly Tribe 2015 3D.BluRay.Half-SBS x264 AAC-SeeHD.torrent (23.09 KB, 下载次数: 0)

回复

使用道具 举报

小黑屋|百度云资源论坛 |网站地图

本网站所有资源来自网络,如无意中侵犯了您的权益,请发邮件至 [email protected],立即清除相关链接

GMT+8, 2020-9-30 13:14 , Processed in 0.098687 second(s), 23 queries .

Powered by Discuz! X3.2

© 2001-2013 Comsenz Inc.

快速回复 返回顶部 返回列表