百度云资源论坛

 找回密码
 立即注册
搜索

[其他] 攀登梅鲁峰 Meru.2015.LIMITED.DOCU.720p.BluRay.x264-SAPHiRE 4.37GB

[复制链接]
电影首发 发表于 2015-11-12 09:19:00 | 显示全部楼层 |阅读模式

译  名 攀登梅鲁峰/梅鲁峰
片  名 Meru
年  代 2015
国  家 美国
类  别 纪录片
语  言 英语
上映日期 2015-08-14(北美)/2015-01-23(圣丹斯电影节)
片  长 87min
导  演 Jimmy Chin / Elizabeth Chai Vasarhelyi


简  介


  3个精英登山者在他们经历伤心的事情的时候抛下一切,只带着友情,一同前往登山界的鱼翅之地,从未有人成功登顶的梅鲁峰,这里的自然环境十分恶劣,在喜马拉雅山脉进行的冒险登山运动中这是令人梦寐以求的第一次攀登。



  • Video
  • ID                                       : 1
  • Format                                   : AVC
  • Format/Info                              : Advanced Video Codec
  • Format profile                           : [email protected]
  • Format settings, CABAC                   : Yes
  • Format settings, ReFrames                : 5 frames
  • Codec ID                                 : V_MPEG4/ISO/AVC
  • Duration                                 : 1h 30mn
  • Bit rate                                 : 5 438 Kbps
  • Width                                    : 1 280 pixels
  • Height                                   : 720 pixels
  • Display aspect ratio                     : 16:9
  • Frame rate mode                          : Constant
  • Frame rate                               : 23.976 fps
  • Color space                              : YUV
  • Chroma subsampling                       : 4:2:0
  • Bit depth                                : 8 bits
  • Scan type                                : Progressive
  • Bits/(Pixel*Frame)                       : 0.246
  • Stream size                              : 3.34 GiB (76%)
  • Writing library                          : x264 core 148 r2638 7599210
  • Encoding settings                        : cabac=1 / ref=5 / deblock=1:0:0 / analyse=0x3:0x113 / me=umh / subme=8 / psy=1 / psy_rd=1.00:0.00 / mixed_ref=1 / me_range=16 / chroma_me=1 / trellis=1 / 8x8dct=1 / cqm=0 / deadzone=21,11 / fast_pskip=1 / chroma_qp_offset=-2 / threads=22 / lookahead_threads=3 / sliced_threads=0 / nr=0 / decimate=1 / interlaced=0 / bluray_compat=0 / constrained_intra=0 / bframes=3 / b_pyramid=2 / b_adapt=2 / b_bias=0 / direct=3 / weightb=1 / open_gop=0 / weightp=2 / keyint=250 / keyint_min=23 / scenecut=40 / intra_refresh=0 / rc_lookahead=50 / rc=2pass / mbtree=1 / bitrate=5438 / ratetol=1.0 / qcomp=0.60 / qpmin=0 / qpmax=69 / qpstep=4 / cplxblur=20.0 / qblur=0.5 / ip_ratio=1.40 / aq=1:1.00
  • Language                                 : English
  • Default                                  : Yes
  • Forced                                   : No


  • Audio
  • ID                                       : 2
  • Format                                   : DTS
  • Format/Info                              : Digital Theater Systems
  • Mode                                     : 16
  • Format settings, Endianness              : Big
  • Codec ID                                 : A_DTS
  • Duration                                 : 1h 30mn
  • Bit rate mode                            : Constant
  • Bit rate                                 : 1 509 Kbps
  • Channel(s)                               : 6 channels
  • Channel positions                        : Front: L C R, Side: L R, LFE
  • Sampling rate                            : 48.0 KHz
  • Bit depth                                : 24 bits
  • Compression mode                         : Lossy
  • Stream size                              : 972 MiB (22%)
  • Title                                    : English
  • Language                                 : English
  • Default                                  : Yes
  • Forced                                   : No


  • Menu
  • 00:00:00.000                             : en:00:00:00.000
  • 00:06:37.230                             : en:00:06:37.230
  • 00:11:50.209                             : en:00:11:50.209
  • 00:22:17.503                             : en:00:22:17.503
  • 00:28:40.469                             : en:00:28:40.469
  • 00:39:00.922                             : en:00:39:00.922
  • 00:49:26.338                             : en:00:49:26.338
  • 00:55:48.845                             : en:00:55:48.845
  • 01:03:45.363                             : en:01:03:45.363
  • 01:10:47.452                             : en:01:10:47.452
  • 01:15:49.295                             : en:01:15:49.295
  • 01:19:58.252                             : en:01:19:58.252
  • 01:25:24.119                             : en:01:25:24.119





                                                                                                                                                                                                       

                                                                                                                       
                                                                                                                                                                                                                                                        Meru.2015.LIMITED.DOCU.720p.BluRay.x264-SAPHiRE.torrent (88.01 KB, 下载次数: 0)

回复

使用道具 举报

小黑屋|百度云资源论坛 |网站地图

本网站所有资源来自网络,如无意中侵犯了您的权益,请发邮件至 [email protected],立即清除相关链接

GMT+8, 2020-10-22 20:16 , Processed in 0.100340 second(s), 23 queries .

Powered by Discuz! X3.2

© 2001-2013 Comsenz Inc.

快速回复 返回顶部 返回列表