百度云资源论坛

 找回密码
 立即注册
搜索

[剧情片] 给鲍比·朗的情歌 A.Love.Song.for.Bobby.Long.2004.1080p.BluRay.x264.DTS-FGT 10.35 ...

[复制链接]
电影首发 发表于 2015-11-12 09:13:00 | 显示全部楼层 |阅读模式

译  名 给鲍比·朗的情歌/给鲍比朗的情歌/献给你的情歌
片  名 A Love Song for Bobby Long
年  代 2004
国  家 美国
类  别 剧情
语  言 英语
上映日期 2004-10-08
片  长 119 分钟
导  演 珊妮·盖博 Shainee Gabel
主  演 约翰·特拉沃尔塔 John Travolta
      斯嘉丽·约翰逊 Scarlett Johansson
      盖布瑞·马赫特 Gabriel Macht
      黛博拉·卡拉·安格 Deborah Kara Unger
      Dane Rhodes
      大卫·詹森 David Jensen
      克莱恩·克劳福德 Clayne Crawford
      Sonny Shroyer
      Carol Sutton
      Walter Breaux
      沃伦·科尔 Warren Kole
      Bernard Johnson
      Gina 'Ginger' Bernal
      道格拉斯·M.格里芬 Douglas M. Griffin
      Earl Maddox


简  介


  母亲去世的消息传来,令女孩帕斯林(斯嘉丽·约翰逊 Scarlett Johansson 饰)回去乡下老家,没想到在母亲留下的旧屋住着两个古怪的人,一个是落魄文学教授鲍比·朗( 约翰·特拉沃尔塔 John Travolta 饰),是个衰老、邋遢的酗酒男人,和打算为他写传记的学生兰森(盖布瑞·马赫特 Gabriel Macht 饰)。三人暂时居住在一起,从鲍比·朗的口中,帕斯林听到许多母亲的过去,也让她找到母亲曾经的情感——这个始终写歌、最终吸毒过量去世的母亲,生命中的情歌都是写给谁的。新奥尔良乡下的悠闲足以让时光静止,这个老男人身上已经看不到将来,年轻的帕斯林渐渐不堪忍受这一切,也慢慢发现自己和鲍比·朗真正的联系……




Video
ID                                       : 1
Format                                   : AVC
Format/Info                              : Advanced Video Codec
Format profile                           : [email protected]
Format settings, CABAC                   : Yes
Format settings, ReFrames                : 4 frames
Codec ID                                 : V_MPEG4/ISO/AVC
Duration                                 : 1h 59mn
Bit rate                                 : 10.6 Mbps
Width                                    : 1 920 pixels
Height                                   : 1 040 pixels
Display aspect ratio                     : 1.85:1
Frame rate mode                          : Constant
Frame rate                               : 24.000 fps
Color space                              : YUV
Chroma subsampling                       : 4:2:0
Bit depth                                : 8 bits
Scan type                                : Progressive
Bits/(Pixel*Frame)                       : 0.221
Stream size                              : 8.88 GiB (86%)
Writing library                          : x264 core 119 r2106 07efeb4
Encoding settings                        : cabac=1 / ref=4 / deblock=1:-1:-1 / analyse=0x3:0x133 / me=umh / subme=7 / psy=1 / psy_rd=1.00:0.15 / mixed_ref=1 / me_range=16 / chroma_me=1 / trellis=1 / 8x8dct=1 / cqm=0 / deadzone=21,11 / fast_pskip=0 / chroma_qp_offset=-3 / threads=12 / sliced_threads=0 / nr=0 / decimate=1 / interlaced=0 / bluray_compat=0 / constrained_intra=0 / bframes=3 / b_pyramid=2 / b_adapt=1 / b_bias=0 / direct=3 / weightb=1 / open_gop=0 / weightp=2 / keyint=250 / keyint_min=24 / scenecut=40 / intra_refresh=0 / rc_lookahead=40 / rc=crf / mbtree=1 / crf=20.0 / qcomp=0.60 / qpmin=0 / qpmax=69 / qpstep=4 / ip_ratio=1.40 / aq=1:1.00
Language                                 : English
Default                                  : Yes
Forced                                   : No

Audio
ID                                       : 2
Format                                   : DTS
Format/Info                              : Digital Theater Systems
Mode                                     : 16
Format settings, Endianness              : Big
Codec ID                                 : A_DTS
Duration                                 : 1h 59mn
Bit rate mode                            : Constant
Bit rate                                 : 1 509 Kbps
Channel(s)                               : 6 channels
Channel positions                        : Front: L C R, Side: L R, LFE
Sampling rate                            : 48.0 KHz
Bit depth                                : 24 bits
Compression mode                         : Lossy
Stream size                              : 1.26 GiB (12%)
Language                                 : English
Default                                  : Yes
Forced                                   : No







                                                                                                                                                                                                       

                                                                                                                       
                                                                                                                                                                                                                                                        A.Love.Song.for.Bobby.Long.2004.1080p.BluRay.x264.DTS-FGT.torrent (52.36 KB, 下载次数: 0)

回复

使用道具 举报

小黑屋|百度云资源论坛 |网站地图

本网站所有资源来自网络,如无意中侵犯了您的权益,请发邮件至 [email protected],立即清除相关链接

GMT+8, 2020-10-22 03:20 , Processed in 0.097540 second(s), 23 queries .

Powered by Discuz! X3.2

© 2001-2013 Comsenz Inc.

快速回复 返回顶部 返回列表