百度云资源论坛

 找回密码
 立即注册
搜索

[犯罪片] 凶案清理员/追凶线索/清洁工 Cleaner.2007.1080p.BluRay.x264.DTS-FGT 7.56 GB ... ...

[复制链接]
电影首发 发表于 2015-11-12 09:13:00 | 显示全部楼层 |阅读模式

译  名 凶案清理员/追凶线索/清洁工
片  名 Cleaner
年  代 2007
国  家 美国
类  别 犯罪/惊悚
语  言 英语
上映日期 2008-01-18
片  长 88分钟
导  演 雷尼·哈林 Renny Harlin
主  演 塞缪尔·杰克逊 Samuel L. Jackson
      艾德·哈里斯 Ed Harris
      伊娃·门德斯 Eva Mendes
      路易斯·古兹曼 Luis Guzmán
      柯柯·帕尔莫 Keke Palmer
      玛吉·劳森 Maggie Lawson
      霍塞·帕布罗·坎蒂罗 Jose Pablo Cantillo
      罗伯特·福斯特 Robert Forster
      Edrick Browne
      马克·麦考利 Marc Macaulay
      Rosalind Rubin
      Mike Guy
      Richard Folmer
      James Barnes
      Linda Leonard


简  介


  退休警察汤姆(塞缪尔•杰克逊 Samuel L. Jackson 饰)开了一家专门替人家清理犯罪现场的公司,主要工作就是在血案发生后帮助被害人家属料理后事。这工作虽然污秽琐碎,但是他却从中总结出了生意经。他和聪明乖巧的女儿相依为命。母亲因故去世令女儿特别依赖父亲。每次他夜不归宿,女儿都会忐忑不安。
  在一次清理血案现场的工作后,他遇到了被害人的妻子(伊娃•门德斯 Eva Mendes 饰),赫然发现过去同事(艾德•哈里斯 Ed Harris 饰)在办案中存在漏洞,而自己却间接成了帮凶。当初,就是因为忍受不了警队的腐败,汤姆才愤然离去。这次,他重新回到破案的中心,意欲逼近真相,危险也随之而来……




Video
ID                                       : 1
Format                                   : AVC
Format/Info                              : Advanced Video Codec
Format profile                           : [email protected]
Format settings, CABAC                   : Yes
Format settings, ReFrames                : 5 frames
Codec ID                                 : V_MPEG4/ISO/AVC
Duration                                 : 1h 28mn
Bit rate                                 : 10.7 Mbps
Width                                    : 1 920 pixels
Height                                   : 800 pixels
Display aspect ratio                     : 2.40:1
Frame rate mode                          : Constant
Frame rate                               : 24.000 fps
Color space                              : YUV
Chroma subsampling                       : 4:2:0
Bit depth                                : 8 bits
Scan type                                : Progressive
Bits/(Pixel*Frame)                       : 0.290
Stream size                              : 6.48 GiB (86%)
Writing library                          : x264 core 65 r1069M ed32ad2
Encoding settings                        : cabac=1 / ref=5 / deblock=1:0:0 / analyse=0x3:0x113 / me=umh / subme=7 / psy_rd=1.0:0.0 / mixed_ref=1 / me_range=16 / chroma_me=1 / trellis=1 / 8x8dct=1 / cqm=0 / deadzone=21,11 / chroma_qp_offset=-2 / threads=6 / nr=0 / decimate=1 / mbaff=0 / bframes=3 / b_pyramid=1 / b_adapt=1 / b_bias=0 / direct=3 / wpredb=1 / keyint=250 / keyint_min=25 / scenecut=40(pre) / rc=2pass / bitrate=10687 / ratetol=1.0 / qcomp=0.50 / qpmin=10 / qpmax=51 / qpstep=4 / cplxblur=20.0 / qblur=0.5 / ip_ratio=1.10 / pb_ratio=1.10 / aq=1:1.00
Language                                 : English
Default                                  : Yes
Forced                                   : No

Audio
ID                                       : 2
Format                                   : DTS
Format/Info                              : Digital Theater Systems
Mode                                     : 16
Format settings, Endianness              : Big
Codec ID                                 : A_DTS
Duration                                 : 1h 28mn
Bit rate mode                            : Constant
Bit rate                                 : 1 509 Kbps
Channel(s)                               : 6 channels
Channel positions                        : Front: L C R, Side: L R, LFE
Sampling rate                            : 48.0 KHz
Bit depth                                : 16 bits
Compression mode                         : Lossy
Stream size                              : 958 MiB (12%)
Language                                 : English
Default                                  : Yes
Forced                                   : No





                                                                                                                                                                                                       

                                                                                                                       
                                                                                                                                                                                                                                                        Cleaner.2007.1080p.BluRay.x264.DTS-FGT.torrent (76.21 KB, 下载次数: 0)

回复

使用道具 举报

小黑屋|百度云资源论坛 |网站地图

本网站所有资源来自网络,如无意中侵犯了您的权益,请发邮件至 [email protected],立即清除相关链接

GMT+8, 2020-9-25 20:36 , Processed in 0.113785 second(s), 23 queries .

Powered by Discuz! X3.2

© 2001-2013 Comsenz Inc.

快速回复 返回顶部 返回列表