百度云资源论坛

 找回密码
 立即注册
搜索

[剧情片] 马语者/轻声细语/情深说话未曾讲 The.Horse.Whisperer.1998.1080p.BluRay.x264.DTS-FG ...

[复制链接]
电影首发 发表于 2015-11-12 09:13:00 | 显示全部楼层 |阅读模式

译  名 马语者/轻声细语/情深说话未曾讲/与马说话的人
片  名 The Horse Whisperer
年  代 1998
国  家 美国
类  别 剧情/爱情/西部
语  言 英语
上映日期 1998-05-15
片  长 170 分钟
导  演 罗伯特·雷德福 Robert Redford
主  演 罗伯特·雷德福 Robert Redford
      克里斯汀·斯科特·托马斯 Kristin Scott Thomas
      斯嘉丽·约翰逊 Scarlett Johansson
      山姆·尼尔 Sam Neill
      克里斯·库珀 Chris Cooper


简  介


  安妮(克里斯汀•斯科特•托马斯 Kristin Scott Thomas 饰)的女儿格雷斯(斯嘉丽•约翰逊 Scarlett Johansson 饰) 喜欢骑马,却在一次事故中和好友一同从马背摔下,好友遇难,而格雷斯也摔断了一条腿,她心爱的马匹“朝圣者”受伤得面目全非。格雷斯的心里蒙上了挥之不去的阴霾。
  母亲心里十分着急。听说蒙大拿有精通马语之人汤姆(罗伯特•雷德福 Robert Redford 饰),安妮决定携女儿和“朝圣者”同往疗伤。汤姆起初不答应,终被感动,格雷斯和“朝圣者”在马语者精心的训练调养下慢慢复原,而离开了大都市的安妮也沉浸在那一片安静广袤的天地中。但是,安妮为此付出了代价——她长期离职,被解雇了,同时和丈夫的感情越来越疏远淡漠。另一方面,汤姆的与众不同让安妮心里泛起了阵阵涟漪。


获奖情况


  第71届奥斯卡金像奖 (1999)
  最佳原创歌曲(提名) Allison Moorer / Gwil Owen




Video
ID                                       : 1
Format                                   : AVC
Format/Info                              : Advanced Video Codec
Format profile                           : [email protected]
Format settings, CABAC                   : Yes
Format settings, ReFrames                : 5 frames
Codec ID                                 : V_MPEG4/ISO/AVC
Duration                                 : 2h 49mn
Bit rate                                 : 7 559 Kbps
Width                                    : 1 920 pixels
Height                                   : 824 pixels
Display aspect ratio                     : 2.35:1
Frame rate mode                          : Constant
Frame rate                               : 23.976 fps
Color space                              : YUV
Chroma subsampling                       : 4:2:0
Bit depth                                : 8 bits
Scan type                                : Progressive
Bits/(Pixel*Frame)                       : 0.199
Stream size                              : 8.94 GiB (82%)
Writing library                          : x264 core 142 r2389 956c8d8
Encoding settings                        : cabac=1 / ref=5 / deblock=1:-3:-3 / analyse=0x3:0x133 / me=umh / subme=8 / psy=1 / psy_rd=1.00:0.15 / mixed_ref=1 / me_range=16 / chroma_me=1 / trellis=1 / 8x8dct=1 / cqm=0 / deadzone=21,11 / fast_pskip=0 / chroma_qp_offset=-3 / threads=12 / lookahead_threads=2 / sliced_threads=0 / nr=0 / decimate=1 / interlaced=0 / bluray_compat=0 / constrained_intra=0 / bframes=3 / b_pyramid=2 / b_adapt=2 / b_bias=0 / direct=3 / weightb=1 / open_gop=0 / weightp=2 / keyint=240 / keyint_min=23 / scenecut=40 / intra_refresh=0 / rc_lookahead=50 / rc=crf / mbtree=1 / crf=20.0 / qcomp=0.60 / qpmin=0 / qpmax=69 / qpstep=4 / ip_ratio=1.40 / aq=1:1.00
Language                                 : English
Default                                  : Yes
Forced                                   : No

Audio
ID                                       : 2
Format                                   : DTS
Format/Info                              : Digital Theater Systems
Mode                                     : 16
Format settings, Endianness              : Big
Codec ID                                 : A_DTS
Duration                                 : 2h 49mn
Bit rate mode                            : Constant
Bit rate                                 : 1 509 Kbps
Channel(s)                               : 6 channels
Channel positions                        : Front: L C R, Side: L R, LFE
Sampling rate                            : 48.0 KHz
Bit depth                                : 24 bits
Compression mode                         : Lossy
Stream size                              : 1.78 GiB (16%)
Language                                 : English
Default                                  : Yes
Forced                                   : No

Menu
00:00:00.000                             : en:00:00:00.000
00:07:33.161                             : en:00:07:33.161
00:11:54.589                             : en:00:11:54.589
00:21:21.322                             : en:00:21:21.322
00:35:42.557                             : en:00:35:42.557
00:41:47.130                             : en:00:41:47.130
00:45:11.876                             : en:00:45:11.876
00:51:43.851                             : en:00:51:43.851
00:56:12.119                             : en:00:56:12.119
00:58:07.901                             : en:00:58:07.901
01:02:58.942                             : en:01:02:58.942
01:20:36.832                             : en:01:20:36.832
01:26:43.407                             : en:01:26:43.407
01:31:36.199                             : en:01:31:36.199
01:43:04.345                             : en:01:43:04.345
01:52:30.494                             : en:01:52:30.494
01:54:12.679                             : en:01:54:12.679
02:08:01.007                             : en:02:08:01.007
02:17:06.844                             : en:02:17:06.844
02:19:40.789                             : en:02:19:40.789
02:39:27.016                             : en:02:39:27.016
02:42:46.590                             : en:02:42:46.590





                                                                                                                                                                                                       

                                                                                                                       
                                                                                                                                                                                                                                                        The.Horse.Whisperer.1998.1080p.BluRay.x264.DTS-FGT.torrent (55.31 KB, 下载次数: 0)

回复

使用道具 举报

小黑屋|百度云资源论坛 |网站地图

本网站所有资源来自网络,如无意中侵犯了您的权益,请发邮件至 [email protected],立即清除相关链接

GMT+8, 2020-9-28 13:28 , Processed in 0.112157 second(s), 23 queries .

Powered by Discuz! X3.2

© 2001-2013 Comsenz Inc.

快速回复 返回顶部 返回列表