百度云资源论坛

 找回密码
 立即注册
搜索

[剧情片] 布兰琪/白色 Blanche.1972.FRENCH.1080p.BluRay.x264.DTS-FGT 7.01GB

[复制链接]
电影首发 发表于 2015-11-12 09:13:00 | 显示全部楼层 |阅读模式

译  名 布兰琪/白色
片  名 Blanche
年  代 1972
国  家 法国
类  别 剧情/历史
语  言 法语
上映日期 1972-06-08
片  长 92 分钟
导  演 Walerian Borowczyk
主  演 Michel Simon
      Georges Wilson
      Jacques Perrin


简  介


  Blanche is the young| pure| beautiful wife of the Master of the castle| in a secluded land. Every man is in love with her| including the King and his servant
Bartolomeo| visiting the Master.



Video
ID                                       : 1
Format                                   : AVC
Format/Info                              : Advanced Video Codec
Format profile                           : [email protected]
Format settings, CABAC                   : Yes
Format settings, ReFrames                : 4 frames
Codec ID                                 : V_MPEG4/ISO/AVC
Duration                                 : 1h 33mn
Bit rate                                 : 9 956 Kbps
Width                                    : 1 784 pixels
Height                                   : 1 080 pixels
Display aspect ratio                     : 5:3
Frame rate mode                          : Constant
Frame rate                               : 23.976 fps
Color space                              : YUV
Chroma subsampling                       : 4:2:0
Bit depth                                : 8 bits
Scan type                                : Progressive
Bits/(Pixel*Frame)                       : 0.216
Stream size                              : 6.37 GiB (91%)
Writing library                          : x264 core 146 r2538 121396c
Encoding settings                        : cabac=1 / ref=4 / deblock=1:-3:-3 / analyse=0x3:0x133 / me=umh / subme=9 / psy=1 / psy_rd=1.00:0.00 / mixed_ref=1 / me_range=24 / chroma_me=1 / trellis=1 / 8x8dct=1 / cqm=0 / deadzone=21,11 / fast_pskip=0 / chroma_qp_offset=-2 / threads=6 / lookahead_threads=1 / sliced_threads=0 / nr=0 / decimate=0 / interlaced=0 / bluray_compat=0 / constrained_intra=0 / bframes=4 / b_pyramid=2 / b_adapt=2 / b_bias=0 / direct=1 / weightb=1 / open_gop=0 / weightp=2 / keyint=230 / keyint_min=23 / scenecut=40 / intra_refresh=0 / rc_lookahead=60 / rc=2pass / mbtree=1 / bitrate=9956 / ratetol=1.0 / qcomp=0.60 / qpmin=0 / qpmax=69 / qpstep=4 / cplxblur=20.0 / qblur=0.5 / vbv_maxrate=40000 / vbv_bufsize=30000 / nal_hrd=none / filler=0 / ip_ratio=1.40 / aq=1:1.00
Language                                 : French
Default                                  : Yes
Forced                                   : No

Audio
ID                                       : 2
Format                                   : DTS
Format/Info                              : Digital Theater Systems
Mode                                     : 16
Format settings, Endianness              : Big
Codec ID                                 : A_DTS
Duration                                 : 1h 33mn
Bit rate mode                            : Constant
Bit rate                                 : 768 Kbps
Channel(s)                               : 1 channel
Channel positions                        : Front: C
Sampling rate                            : 48.0 KHz
Bit depth                                : 24 bits
Compression mode                         : Lossy
Stream size                              : 514 MiB (7%)
Language                                 : French
Default                                  : Yes
Forced                                   : No

Text
ID                                       : 3
Format                                   : VobSub
Muxing mode                              : zlib
Codec ID                                 : S_VOBSUB
Codec ID/Info                            : Picture based subtitle format used on DVDs
Language                                 : English
Default                                  : Yes
Forced                                   : Yes

Menu
00:00:00.000                             : :00:00:00.000
00:05:44.886                             : :00:05:44.886
00:14:17.190                             : :00:14:17.190
00:23:48.385                             : :00:23:48.385
00:32:38.206                             : :00:32:38.206
00:41:46.170                             : :00:41:46.170
00:51:02.393                             : :00:51:02.393
01:00:43.098                             : :01:00:43.098
01:09:08.561                             : :01:09:08.561
01:18:49.850                             : :01:18:49.850
01:25:08.812                             : :01:25:08.812
01:30:38.808                             : :01:30:38.808





                                                                                                                                                                                                       

                                                                                                                       
                                                                                                                                                                                                                                                        Blanche.1972.FRENCH.1080p.BluRay.x264.DTS-FGT.torrent (70.75 KB, 下载次数: 0)

回复

使用道具 举报

小黑屋|百度云资源论坛 |网站地图

本网站所有资源来自网络,如无意中侵犯了您的权益,请发邮件至 [email protected],立即清除相关链接

GMT+8, 2020-9-28 12:36 , Processed in 0.110029 second(s), 23 queries .

Powered by Discuz! X3.2

© 2001-2013 Comsenz Inc.

快速回复 返回顶部 返回列表