百度云资源论坛

 找回密码
 立即注册
搜索

醋劲小鸡/酷劲小鸡 Chicken.With.Vinegar.1985.FRENCH.1080p.BluRay.x264.DTS-FGT 8.7 ...

[复制链接]
电影首发 发表于 2015-11-12 09:13:00 | 显示全部楼层 |阅读模式

译  名 醋劲小鸡/酷劲小鸡
片  名 Poulet au vinaigre
年  代 1985
国  家 法国
类  别 犯罪/爱情/喜剧/悬疑
语  言 法语
上映日期 1985-04-10
片  长 110 分钟
导  演 克劳德·夏布洛尔 Claude Chabrol
主  演 Jean Poiret
      斯蒂芬妮·奥德安 Stéphane Audran
      宝丽娜·拉芳 Pauline Lafont
      米歇尔·布盖 Michel Bouquet
      Jean Topart


简  介


  为了阻止一起房产交易,一个医生、一个屠夫和一个公证人需要购买一处属于这个邮差和他母亲的房子。问题是这个行为古怪的邮差在送信钱都阅读每个人信件。一旦他了解到交易的细节,他决定不管该市民去到多远,他都不会让任何人在他的房产销售上满意的赚钱。


获奖情况


  第38届戛纳电影节 (1985)
  主竞赛单元 金棕榈奖(提名) 克劳德·夏布洛尔




Video
ID                                       : 1
Format                                   : AVC
Format/Info                              : Advanced Video Codec
Format profile                           : [email protected]
Format settings, CABAC                   : Yes
Format settings, ReFrames                : 4 frames
Codec ID                                 : V_MPEG4/ISO/AVC
Duration                                 : 1h 49mn
Bit rate                                 : 9 956 Kbps
Width                                    : 1 804 pixels
Height                                   : 1 080 pixels
Display aspect ratio                     : 5:3
Frame rate mode                          : Constant
Frame rate                               : 23.976 fps
Color space                              : YUV
Chroma subsampling                       : 4:2:0
Bit depth                                : 8 bits
Scan type                                : Progressive
Bits/(Pixel*Frame)                       : 0.213
Stream size                              : 7.46 GiB (85%)
Writing library                          : x264 core 146 r2538 121396c
Encoding settings                        : cabac=1 / ref=4 / deblock=1:-3:-3 / analyse=0x3:0x133 / me=umh / subme=9 / psy=1 / psy_rd=1.00:0.00 / mixed_ref=1 / me_range=24 / chroma_me=1 / trellis=1 / 8x8dct=1 / cqm=0 / deadzone=21,11 / fast_pskip=0 / chroma_qp_offset=-2 / threads=6 / lookahead_threads=1 / sliced_threads=0 / nr=0 / decimate=0 / interlaced=0 / bluray_compat=0 / constrained_intra=0 / bframes=4 / b_pyramid=2 / b_adapt=2 / b_bias=0 / direct=1 / weightb=1 / open_gop=0 / weightp=2 / keyint=230 / keyint_min=23 / scenecut=40 / intra_refresh=0 / rc_lookahead=60 / rc=2pass / mbtree=1 / bitrate=9956 / ratetol=1.0 / qcomp=0.60 / qpmin=0 / qpmax=69 / qpstep=4 / cplxblur=20.0 / qblur=0.5 / vbv_maxrate=40000 / vbv_bufsize=30000 / nal_hrd=none / filler=0 / ip_ratio=1.40 / aq=1:1.00
Language                                 : French
Default                                  : Yes
Forced                                   : No

Audio
ID                                       : 2
Format                                   : DTS
Format/Info                              : Digital Theater Systems
Mode                                     : 16
Format settings, Endianness              : Big
Codec ID                                 : A_DTS
Duration                                 : 1h 49mn
Bit rate mode                            : Constant
Bit rate                                 : 1 509 Kbps
Channel(s)                               : 2 channels
Channel positions                        : Front: L R
Sampling rate                            : 48.0 KHz
Bit depth                                : 24 bits
Compression mode                         : Lossy
Stream size                              : 1.16 GiB (13%)
Language                                 : French
Default                                  : Yes
Forced                                   : No

Text
ID                                       : 3
Format                                   : VobSub
Muxing mode                              : zlib
Codec ID                                 : S_VOBSUB
Codec ID/Info                            : Picture based subtitle format used on DVDs
Language                                 : English
Default                                  : Yes
Forced                                   : Yes

Menu
00:00:00.000                             : :00:00:00.000
00:09:21.603                             : :00:09:21.603
00:19:47.645                             : :00:19:47.645
00:28:43.555                             : :00:28:43.555
00:37:50.351                             : :00:37:50.351
00:46:41.007                             : :00:46:41.007
00:57:06.131                             : :00:57:06.131
01:07:20.495                             : :01:07:20.495
01:14:57.118                             : :01:14:57.118
01:24:42.035                             : :01:24:42.035
01:32:00.265                             : :01:32:00.265
01:41:41.679                             : :01:41:41.679






                                                                                                                                                                                                       

                                                                                                                       
                                                                                                                                                                                                                                                        Chicken.With.Vinegar.1985.FRENCH.1080p.BluRay.x264.DTS-FGT.torrent (88.58 KB, 下载次数: 0)

回复

使用道具 举报

小黑屋|百度云资源论坛 |网站地图

本网站所有资源来自网络,如无意中侵犯了您的权益,请发邮件至 [email protected],立即清除相关链接

GMT+8, 2020-11-27 13:00 , Processed in 0.105091 second(s), 23 queries .

Powered by Discuz! X3.2

© 2001-2013 Comsenz Inc.

快速回复 返回顶部 返回列表